Золотой век / Елизавета: Золотой век / Elizabeth: The Golden Age (Шекхар Капур / Shekhar Kapur) [2007 г., Великобритания, Франция, США, Германия, драма, биография, история, HDRip] Dub + AVO (Немахов) + Original (Eng) + Sub (Rus, Eng)

 
Автор Сообщение

painkiller ®

Стаж: 2 года 3 месяца

Сообщений: 582



Награды: Нет

Торрент-статистика

Создавать темы 17-Авг-2014 10:42

[Цитировать]

-Золотой век / Елизавета: Золотой век / Elizabeth: The Golden Age--Год выпуска: 2007
Страна: Великобритания, Франция, США, Германия
Жанр: драма, биография, история-Продолжительность: 01:54:51
Перевод 1: Профессиональный (дублированный)
Перевод 2: Авторский (одноголосый закадровый) Юрий Немахов
Субтитры: есть (русские, английские) [.srt]
Оригинальная дорожка: английская (отдельным файлом)--Режиссер: Шекхар Капур / Shekhar Kapur--В ролях:
Кейт Бланшетт, Клайв Оуэн, Джеффри Раш, Эбби Корниш, Саманта Мортон, Жорди Молья, Рис Иванс, Айми Кинг, Лоуренс Фокс, Джон Шрэпнел
--Описание:
1585 год. В мире господствует католическая Испания во главе с королем Филиппом. Ей в состоянии противостоять только Англия с королевой-протестанткой Елизаветой. Но в самой Англии нет единства.
Половина населения превозносит Марию Стюарт, и мечтает видеть ее на английском троне, считая Елизавету незаконнорожденной дочерью Генриха VIII. Испанский король, воспользовавшись сложной ситуацией при английском дворе, готовит заговор. В результате он направляет мощную армаду кораблей к берегам Англии…
--Доп. информация:- -Сэмпл Рип совместим с бытовыми DVD-проигрывателями.--Качество видео: HDRip (Исходник: BDRip 720p/cyberjam )
Формат видео: AVI
Видео: XviD; 720 х 384 (1.875:1); ~1 804; 23.976 fps; 0.272 bpp
Аудио № 1: AC3 Dolby Digital; 48 kHz; 3/2 (L,C,R,l,r) + LFE ch; 448 kbps (Дубляж)
Аудио № 2: AC3 Dolby Digital; 48 kHz; 3/2 (L,C,R,l,r) + LFE ch; 448 kbps (Немахов)
=========================Отдельно=========================
Аудио № 3: AC3 Dolby Digital; 48 kHz; 3/2 (L,C,R,l,r) + LFE ch; 448 kbps (Оригинал)-

Скриншоты


MediaInfo

General
Complete name : \Zolotoy_vek_(2007)\Zolotoy_vek_(2007).HDRip.ac3.Dub_[All.Films][RG].avi
Format : AVI
Format/Info : Audio Video Interleave
Format profile : OpenDML
File size : 2.18 GiB
Duration : 1h 54mn
Overall bit rate : 2 718 Kbps
Writing application : VirtualDubMod 1.5.10.3 | www.virtualdub-fr.org || (build 2550/release)
Writing library : VirtualDubMod build 2550/release
Video
ID : 0
Format : MPEG-4 Visual
Format profile : Advanced Simple@L5
Format settings, BVOP : 2
Format settings, QPel : No
Format settings, GMC : No warppoints
Format settings, Matrix : Custom
Codec ID : XVID
Codec ID/Hint : XviD
Duration : 1h 54mn
Bit rate : 1 804 Kbps
Width : 720 pixels
Height : 384 pixels
Display aspect ratio : 1.85:1
Frame rate : 23.976 fps
Color space : YUV
Chroma subsampling : 4:2:0
Bit depth : 8 bits
Scan type : Progressive
Compression mode : Lossy
Bits/(Pixel*Frame) : 0.272
Stream size : 1.45 GiB (66%)
Writing library : XviD 73
Audio #1
ID : 1
Format : AC-3
Format/Info : Audio Coding 3
Mode extension : CM (complete main)
Format settings, Endianness : Big
Codec ID : 2000
Duration : 1h 54mn
Bit rate mode : Constant
Bit rate : 448 Kbps
Channel count : 6 channels
Channel positions : Front: L C R, Side: L R, LFE
Sampling rate : 48.0 KHz
Bit depth : 16 bits
Compression mode : Lossy
Stream size : 368 MiB (16%)
Alignment : Split accross interleaves
Interleave, duration : 42 ms (1.00 video frame)
Interleave, preload duration : 500 ms
Title : Dub
Audio #2
ID : 2
Format : AC-3
Format/Info : Audio Coding 3
Mode extension : CM (complete main)
Format settings, Endianness : Big
Codec ID : 2000
Duration : 1h 54mn
Bit rate mode : Constant
Bit rate : 448 Kbps
Channel count : 6 channels
Channel positions : Front: L C R, Side: L R, LFE
Sampling rate : 48.0 KHz
Bit depth : 16 bits
Compression mode : Lossy
Stream size : 368 MiB (16%)
Alignment : Split accross interleaves
Interleave, duration : 42 ms (1.00 video frame)
Interleave, preload duration : 500 ms
Title : AVO Немахов
--
[Профиль] [ЛС]

Создавать темы 06-Авг-2015 23:09 (спустя 11 месяцев 20 дней)

Топик был перенесен из форума Фильмы до 2014 года в форум Фильмы до 2012 года
sergej644
 
Показать сообщения:    

Текущее время: Сегодня 20:09

Часовой пояс: GMT



Вы не можете начинать темы
Вы не можете отвечать на сообщения
Вы не можете редактировать свои сообщения
Вы не можете удалять свои сообщения
Вы не можете голосовать в опросах
Вы не можете прикреплять файлы к сообщениям
Вы не можете скачивать файлы