Золотой век / Елизавета: Золотой век / Elizabeth: The Golden Age (Шекхар Капур / Shekhar Kapur) [2007 г., Великобритания, Франция, США, Германия, драма, биография, история, HDRip] Dub

 
Автор Сообщение

painkiller ®

Стаж: 2 года 3 месяца

Сообщений: 582



Награды: Нет

Торрент-статистика

Создавать темы 14-Авг-2014 09:16

[Цитировать]

-Золотой век / Елизавета: Золотой век / Elizabeth: The Golden Age--Год выпуска: 2007
Страна: Великобритания, Франция, США, Германия
Жанр: драма, биография, история-Продолжительность: 01:54:51
Перевод: Профессиональный (дублированный)
Субтитры: нет--Режиссер: Шекхар Капур / Shekhar Kapur--В ролях:
Кейт Бланшетт, Клайв Оуэн, Джеффри Раш, Эбби Корниш, Саманта Мортон, Жорди Молья, Рис Иванс, Айми Кинг, Лоуренс Фокс, Джон Шрэпнел
--Описание:
1585 год. В мире господствует католическая Испания во главе с королем Филиппом. Ей в состоянии противостоять только Англия с королевой-протестанткой Елизаветой. Но в самой Англии нет единства.
Половина населения превозносит Марию Стюарт, и мечтает видеть ее на английском троне, считая Елизавету незаконнорожденной дочерью Генриха VIII. Испанский король, воспользовавшись сложной ситуацией при английском дворе, готовит заговор. В результате он направляет мощную армаду кораблей к берегам Англии…
--Доп. информация:- -
-
-Качество видео: HDRip (Исходник: BDRip 720p/cyberjam

Формат видео: AVI
Видео: XviD; 656 х 352 (1.86:1); ~769 kbps; 23.976 fps; 0.139 bpp
Аудио: MPEG-1 Audio Layer 3 (MP3); 48.0 KHz; 128 Kbps; CBR; 2 ch-

Скриншоты


MediaInfo

General
Complete name : \Zolotoy_vek_(2007).HDRip.mp3.Dub_[All.Films][RG].avi
Format : AVI
Format/Info : Audio Video Interleave
File size : 744 MiB
Duration : 1h 54mn
Overall bit rate : 906 Kbps
Writing application : VirtualDubMod 1.5.10.3 | www.virtualdub-fr.org || (build 2550/release)
Writing library : VirtualDubMod build 2550/release
Video
ID : 0
Format : MPEG-4 Visual
Format profile : Advanced Simple@L5
Format settings, BVOP : 2
Format settings, QPel : No
Format settings, GMC : No warppoints
Format settings, Matrix : Custom
Codec ID : XVID
Codec ID/Hint : XviD
Duration : 1h 54mn
Bit rate : 769 Kbps
Width : 656 pixels
Height : 352 pixels
Display aspect ratio : 1.85:1
Frame rate : 23.976 fps
Color space : YUV
Chroma subsampling : 4:2:0
Bit depth : 8 bits
Scan type : Progressive
Compression mode : Lossy
Bits/(Pixel*Frame) : 0.139
Stream size : 631 MiB (85%)
Writing library : XviD 73
Audio
ID : 1
Format : MPEG Audio
Format version : Version 1
Format profile : Layer 3
Codec ID : 55
Codec ID/Hint : MP3
Duration : 1h 54mn
Bit rate mode : Constant
Bit rate : 128 Kbps
Channel count : 2 channels
Sampling rate : 48.0 KHz
Compression mode : Lossy
Stream size : 105 MiB (14%)
Alignment : Aligned on interleaves
Interleave, duration : 42 ms (1.00 video frame)
Interleave, preload duration : 504 ms
Writing library : LAME3.99r
Encoding settings : -m s -V 4 -q 0 -lowpass 17 -b 128

Сравнение

DVDRip: http://torrentfilm.net/forum/viewtopic.php?t=546050 - выше качество видео, больше наполнение кадра.
http://screenshotcomparison.com/comparison/66070
[Профиль] [ЛС]

Создавать темы 06-Авг-2015 23:15 (спустя 11 месяцев 23 дня)

Топик был перенесен из форума Фильмы до 2014 года в форум Фильмы до 2012 года
sergej644
 
Показать сообщения:    

Текущее время: Сегодня 18:19

Часовой пояс: GMT



Вы не можете начинать темы
Вы не можете отвечать на сообщения
Вы не можете редактировать свои сообщения
Вы не можете удалять свои сообщения
Вы не можете голосовать в опросах
Вы не можете прикреплять файлы к сообщениям
Вы не можете скачивать файлы