Золотое Дно Охотского Моря (Олег Солдатенков) [2015, Документальный, HDTV 720p]

 
Автор Сообщение

TorrentFilm ®

Пол:

Стаж: 2 года

Сообщений: 7741



Награды: Нет

Торрент-статистика

Создавать темы 25-Май-2015 00:04

[Цитировать]

Золотое Дно Охотского Моря- Год выпуска: 2014
Страна: Россия
Студия: Россия HD
Жанр: Документальный
Продолжительность: 0:40:58
Автор и режиссер: Олег Солдатенков-Описание: Согласно решению ООН с 15 марта 2014 года участок в центральной части Охотского моря передан России. Как же так вышло, что в центре нашего моря образовалась "ничейная" акватория? Почему иностранные суда "под гребенку" вычищали наши ресурсы?-Автор рипа: lrn
Автор записи: Alexin29
Сэмпл: sendfile-Тип релиза: HDTV 720p
Контейнер: MKV
Видео: 1280x720 (16:9), 25,000 fps, H264, ~4000 kbps avg, ~0.174 bit/pixel
Аудио: 48 kHz, AC3 Dolby Digital, 2/0 (L,R) ch, ~192.00 kbps avg-

MediaInfo

GeneralUnique ID : 213513157429512440085198468049387355560 (0xA0A1236A57D321CE9E19E0B6EE337DA8)Complete name : E:\uTorrent.Temp\Temp\Zolotoe.Dno.Ohotskogo.Morya.2014.HDTV.720p.x264-lrn.mkvFormat : MatroskaFormat version : Version 4 / Version 2File size : 1.20 GiBDuration : 40mn 58sOverall bit rate : 4 193 KbpsMovie name : Zolotoe.Dno.Ohotskogo.Morya.2014.HDTV.720p.x264-lrnEncoded date : UTC 2010-02-22 21:41:31Writing application : mkvmerge v5.9.0 ('On The Loose') built on Dec 9 2012 15:37:01Writing library : libebml v1.3.0 + libmatroska v1.4.0
VideoID : 1Format : AVCFormat/Info : Advanced Video CodecFormat profile : High@L4.1Format settings, CABAC : YesFormat settings, ReFrames : 8 framesCodec ID : V_MPEG4/ISO/AVCDuration : 40mn 58sBit rate : 4 000 KbpsWidth : 1 280 pixelsHeight : 720 pixelsDisplay aspect ratio : 16:9Frame rate mode : ConstantFrame rate : 25.000 fpsColor space : YUVChroma subsampling : 4:2:0Bit depth : 8 bitsScan type : ProgressiveBits/(Pixel*Frame) : 0.174Stream size : 1.12 GiB (93%)Writing library : x264 core 142 r2479 dd79a61Encoding settings : cabac=1 / ref=8 / deblock=1:-3:-3 / analyse=0x3:0x113 / me=umh / subme=9 / psy=1 / psy_rd=1.00:0.00 / mixed_ref=1 / me_range=32 / chroma_me=1 / trellis=2 / 8x8dct=1 / cqm=0 / deadzone=21,11 / fast_pskip=1 / chroma_qp_offset=-4 / threads=12 / lookahead_threads=2 / sliced_threads=0 / nr=0 / decimate=1 / interlaced=0 / bluray_compat=0 / constrained_intra=0 / bframes=8 / b_pyramid=2 / b_adapt=2 / b_bias=0 / direct=1 / weightb=1 / open_gop=0 / weightp=2 / keyint=250 / keyint_min=25 / scenecut=40 / intra_refresh=0 / rc_lookahead=50 / rc=2pass / mbtree=1 / bitrate=4000 / ratetol=1.0 / qcomp=0.60 / qpmin=0 / qpmax=69 / qpstep=4 / cplxblur=20.0 / qblur=0.5 / vbv_maxrate=62500 / vbv_bufsize=78125 / nal_hrd=none / filler=0 / ip_ratio=1.40 / aq=1:1.00Default : YesForced : NoColor range : LimitedColor primaries : BT.709Transfer characteristics : BT.709Matrix coefficients : BT.709
AudioID : 2Format : AC-3Format/Info : Audio Coding 3Mode extension : CM (complete main)Format settings, Endianness : BigCodec ID : A_AC3Duration : 40mn 58sBit rate mode : ConstantBit rate : 192 KbpsChannel(s) : 2 channelsChannel positions : Front: L RSampling rate : 48.0 KHzCompression mode : LossyDelay relative to video : 63msStream size : 56.3 MiB (5%)Language : RussianDefault : YesForced : No

x264 log

raw [info]: 1280x720p 1:1 @ 25/1 fps (cfr)x264 [info]: using SAR=1/1x264 [info]: using cpu capabilities: MMX2 SSE2Fast SSSE3 SSE4.2 AVXx264 [info]: profile High, level 4.1x264 [info]: frame I:609 Avg QP:15.01 size:106923x264 [info]: frame P:15403 Avg QP:18.35 size: 37274x264 [info]: frame B:45436 Avg QP:20.55 size: 12971x264 [info]: consecutive B-frames: 2.5% 3.6% 7.7% 54.7% 13.4% 12.9% 2.4% 2.2% 0.6%x264 [info]: mb I I16..4: 7.5% 74.7% 17.7%x264 [info]: mb P I16..4: 3.8% 19.1% 1.8% P16..4: 37.7% 19.6% 10.0% 0.0% 0.0% skip: 8.0%x264 [info]: mb B I16..4: 0.8% 4.0% 0.5% B16..8: 35.2% 9.6% 2.1% direct: 8.8% skip:39.1% L0:43.2% L1:44.5% BI:12.4%x264 [info]: 8x8 transform intra:76.4% inter:68.6%x264 [info]: coded y,uvDC,uvAC intra: 72.9% 81.4% 46.6% inter: 23.0% 34.4% 3.9%x264 [info]: i16 v,h,dc,p: 26% 24% 6% 44%x264 [info]: i8 v,h,dc,ddl,ddr,vr,hd,vl,hu: 10% 22% 7% 6% 9% 9% 14% 8% 15%x264 [info]: i4 v,h,dc,ddl,ddr,vr,hd,vl,hu: 9% 18% 4% 6% 12% 10% 16% 8% 16%x264 [info]: i8c dc,h,v,p: 36% 32% 17% 14%x264 [info]: Weighted P-Frames: Y:2.7% UV:1.0%x264 [info]: ref P L0: 54.8% 11.6% 15.7% 5.3% 4.2% 3.3% 2.9% 2.0% 0.2% 0.0%x264 [info]: ref B L0: 79.0% 10.3% 4.7% 2.4% 1.9% 1.1% 0.6%x264 [info]: ref B L1: 94.2% 5.8%x264 [info]: kb/s:3998.89encoded 61448 frames, 13.46 fps, 3998.89 kb/s

Скриншоты

-
[Профиль] [ЛС]
Показать сообщения:    

Текущее время: Сегодня 02:21

Часовой пояс: GMT



Вы не можете начинать темы
Вы не можете отвечать на сообщения
Вы не можете редактировать свои сообщения
Вы не можете удалять свои сообщения
Вы не можете голосовать в опросах
Вы не можете прикреплять файлы к сообщениям
Вы не можете скачивать файлы