Золотая лихорадка: Под лед Берингова моря (2 сезон 4-5 серия из 5) / Bering Sea Gold: Under the Ice [2013, ТВ-Шоу, SATRip]

 
Автор Сообщение

reversefile ®

Пол:

Стаж: 4 года 5 месяцев

Сообщений: 842

Откуда: ReverseFile.org



Награды: Нет

Торрент-статистика

Создавать темы 24-Июл-2014 17:55

[Цитировать]

Золотая лихорадка: Под лед Берингова моря (2 сезон 4-5 серия) / Bering Sea Gold: Under the Ice
Год выпуска: 2013
Страна: США
Жанр: ТВ-Шоу
Продолжительность: 42:58
Перевод: Профессиональный (двухголосый закадровый)
Описание: С приходом тепла растет напряженность. Тем временем, после месяцев непрерывной работы, не имея возможности оплакать погибшего друга, Зик доходит до края.
Сэмпл: http://multi-up.com/956826
качество: SATRip
формат: AVI
Видео: XviD, 704x400 (16:9), 1911 Kbps, 25.000 fps
Аудио: MP3, 44.1 KHz, 2 ch, 128 Kbps

MediaInfo

GeneralComplete name : E:\За граню\Под лед Берингова моря\S02E04 Waterfalls of Gold.aviFormat : AVIFormat/Info : Audio Video InterleaveFile size : 663 MiBDuration : 42mn 58sOverall bit rate : 2 157 Kbps
VideoID : 0Format : MPEG-4 VisualFormat profile : Advanced Simple@L5Format settings, BVOP : 2Format settings, QPel : NoFormat settings, GMC : No warppointsFormat settings, Matrix : Default (H.263)Muxing mode : Packed bitstreamCodec ID : XVIDCodec ID/Hint : XviDDuration : 42mn 58sBit rate : 2 022 KbpsWidth : 704 pixelsHeight : 400 pixelsDisplay aspect ratio : 16:9Frame rate : 25.000 fpsColor space : YUVChroma subsampling : 4:2:0Bit depth : 8 bitsScan type : ProgressiveCompression mode : LossyBits/(Pixel*Frame) : 0.287Stream size : 622 MiB (94%)Writing library : XviD 64
AudioID : 1Format : MPEG AudioFormat version : Version 1Format profile : Layer 3Mode : Joint stereoMode extension : MS StereoCodec ID : 55Codec ID/Hint : MP3Duration : 42mn 57sBit rate mode : ConstantBit rate : 128 KbpsChannel(s) : 2 channelsSampling rate : 44.1 KHzCompression mode : LossyStream size : 39.3 MiB (6%)Alignment : Split accross interleavesInterleave, duration : 1000 ms (25.00 video frames)Writing library : LAME3.96.1

Скриншоты

[Профиль] [ЛС]
Показать сообщения:    

Текущее время: Сегодня 10:16

Часовой пояс: GMT



Вы не можете начинать темы
Вы не можете отвечать на сообщения
Вы не можете редактировать свои сообщения
Вы не можете удалять свои сообщения
Вы не можете голосовать в опросах
Вы не можете прикреплять файлы к сообщениям
Вы не можете скачивать файлы