Золотая лихорадка. Калифорния / Gold Fever (Discovery Channel) (Сезон 1. 1-4 серия) [2013, Документальный, Вестерн, 576i, MPEG, IPTVRip]

 
Автор Сообщение

reversefile ®

Пол:

Стаж: 4 года 5 месяцев

Сообщений: 842

Откуда: ReverseFile.org



Награды: Нет

Торрент-статистика

Создавать темы 24-Июл-2014 17:55

[Цитировать]

Год выпуска: 2013
Страна: США
Жанр: Документальный, Вестерн
Продолжительность: 00:43:51
Перевод: Профессиональный (многоголосый, закадровый)
Режиссер: Stephen David
Описание: Рассказ о Бостонской Компании – группе из 40 человек, которая, подобно тысячам смельчаков и авантюристов, отправилась на запад Америки с одной мечтой – разбогатеть.
26.01.2014 - Добавлена 1-ая Серия
02.02.2014 - Добавлена 2-ая Серия
10.02.2014 - Добавлена 3-ая Серия
16.02.2014 - Добавлена 4-ая Серия
Список серий сезона
1x01 Eureka! / Эврика!
1x02 San Francisco Burning / Огонь в Сан-Франциско
1x03 Lawless / Беззаконие
1x04 Battle for Gold / Битва за золото

Автор записи: BL
Сэмпл: http://multi-up.com/944395
Качество: IPTVRip
Формат: MPG
Видео: MPEG2, 720x576i (4:3) 25 FPS, 3 200 Kbps
Аудио RUS: MPEG Layer-II 192 kbps 48.0 kHz
Аудио ENG: MPEG Layer-II 192 kbps 48.0 kHz

MediaInfo

Gold.Fever.S01E01.Eureka!.Rus.Eng_BL.mpg
Format : MPEG-PS
File size : 1.12 GiB
Duration : 43mn 51s
Overall bit rate mode : Variable
Overall bit rate : 3 657 Kbps
Writing library : (c) 1998-2010 Womble Multimedia, Inc. / MPEG Video Wizard DVD 5.0.0.114 (01/2010) / Nov 13 2010
Video
ID : 224 (0xE0)
Format : MPEG Video
Format version : Version 2
Format profile : Main@Main
Format settings, BVOP : Yes
Format settings, Matrix : Custom
Format settings, GOP : Variable
Duration : 43mn 51s
Bit rate mode : Variable
Bit rate : 3 200 Kbps
Maximum bit rate : 15.0 Mbps
Width : 720 pixels
Height : 576 pixels
Display aspect ratio : 4:3
Frame rate : 25.000 fps
Standard : PAL
Color space : YUV
Chroma subsampling : 4:2:0
Bit depth : 8 bits
Scan type : Interlaced
Scan order : Top Field First
Compression mode : Lossy
Bits/(Pixel*Frame) : 0.309
Time code of first frame : 00:00:00:00
Time code source : Group of pictures header
Stream size : 1 004 MiB (88%)
Writing library : (c) 1998-2010 Womble Multimedia, Inc. / MPEG Video Wizard DVD 5.0.0.114 (01/2010) / Nov 13 2010
Audio #1
ID : 192 (0xC0)
Format : MPEG Audio
Format version : Version 1
Format profile : Layer 2
Duration : 43mn 51s
Bit rate mode : Constant
Bit rate : 192 Kbps
Channel(s) : 2 channels
Sampling rate : 48.0 KHz
Compression mode : Lossy
Stream size : 60.2 MiB (5%)
Audio #2
ID : 193 (0xC1)
Format : MPEG Audio
Format version : Version 1
Format profile : Layer 2
Duration : 43mn 51s
Bit rate mode : Constant
Bit rate : 192 Kbps
Channel(s) : 2 channels
Sampling rate : 48.0 KHz
Compression mode : Lossy
Stream size : 60.2 MiB (5%)

СкриншотыСкриншоты 1x01 Eureka! / Эврика!

Скриншоты 1x02 San Francisco Burning / Огонь в Сан-Франциско

Скриншоты 1x03 Lawless / Беззаконие

Скриншоты 1x04 Battle for Gold / Битва за золото

При перезаливе на другие трекера (сайты) просьба указывать источник(Rutracker.org) или автора. Спасибо.
[Профиль] [ЛС]
Показать сообщения:    

Текущее время: Сегодня 19:36

Часовой пояс: GMT



Вы не можете начинать темы
Вы не можете отвечать на сообщения
Вы не можете редактировать свои сообщения
Вы не можете удалять свои сообщения
Вы не можете голосовать в опросах
Вы не можете прикреплять файлы к сообщениям
Вы не можете скачивать файлы