Золотая клетка / La jaula de oro (2013) BDRip 720p

 
Автор Сообщение

sergej644 ®

Пол:

Стаж: 4 года 11 месяцев

Сообщений: 6040

Откуда: Soviet Union



Награды: Нет

Торрент-статистика

Создавать темы 30-Июн-2015 15:16

[Цитировать]

--Золотая клетка Название: Золотая клетка
Оригинальное название: La jaula de oro
Год выпуска: 2013
Страна: Гватемала, Испания, Мексика
Жанр: драма
Продолжительность: 01:48:11
Перевод: любительский одноголосый
Режиссёр: Диего Кемада-Диес
В ролях: Брэндон Лопес, Родольфо Домингес, Карен Мартинес, Луис Алберти, Хильберто Барраса
Описание: 15-летние Хуан, Сара и Самуэль покидают Гватемалу, чтобы добраться до США. В Мексике они встречают Чаука — индейца из племени цоциль, который путешествует без документов и не говорит по-испански. Подростки надеются найти лучшую долю по ту сторону мексиканской границы, но очень скоро им придётся столкнуться с жестокой реальностью...

Качество: BDRip 720p
Формат: MKV
Видео: MPEG-4 AVC, 4552 Кбит/с, 1280x538, 23,976 кадра/с
Аудио 1: русский, AC3, 192 kbps, 6 ch, 48 kHz [любительский одноголосый, R.A.I.M]
Аудио 2: испанский, AC3, 448 kbps, 6 ch, 48 kHz [оригинал]
Субтитры 1: русские (creo140)
Субтитры 2: английские

Награды

Гойя, 2014 год
Номинации (1):
Лучший латиноамериканский фильм
Каннский кинофестиваль, 2013 год
Победитель (2):
Особый взгляд Каннского кинофестиваля - приз особому таланту — «For the ensemble»
Приз Франсуа Шале - особое упоминание — «For the strength of the visual aspect, the violence of truth and the emotional intensity of the tragic story of the journey of three teenagers from Guatemala to the American dream»
Номинации (2):
Золотая камера (награда за режиссерский дебют) (Диего Кемада-Диес)
Особый взгляд Каннского кинофестиваля

Инфо-файл

Общее
Уникальный идентификатор : 198322854939714846884304732374904508634 (0x953397ADFAEA93D68AFEEB4E39CE90DA)
Полное имя : D:VideoЗолотая клетка.2013.BDRip.720p.mkv
Формат : Matroska
Версия формата : Version 4 / Version 2
Размер файла : 4,00 Гбайт
Продолжительность : 1 ч. 48 м.
Общий поток : 5297 Кбит/сек
Название фильма : BDRip -- STarankov
Дата кодирования : UTC 2015-06-28 07:16:27
Программа кодирования : mkvmerge v7.9.0 ('Birds') 64bit
Библиотека кодирования : libebml v1.3.1 + libmatroska v1.4.2
_STATISTICS_WRITING_APP : mkvmerge v7.9.0 ('Birds') 64bit
_STATISTICS_WRITING_DATE_UTC : 2015-06-28 07:16:27
_STATISTICS_TAGS : BPS DURATION NUMBER_OF_FRAMES NUMBER_OF_BYTES
DURATION : 01:28:19.465000000
NUMBER_OF_FRAMES : 474
NUMBER_OF_BYTES : 10982
Видео
Идентификатор : 1
Формат : AVC
Формат/Информация : Advanced Video Codec
Профиль формата : High@L4.1
Параметр CABAC формата : Да
Параметр ReFrames формата : 9 кадров
Идентификатор кодека : V_MPEG4/ISO/AVC
Продолжительность : 1 ч. 48 м.
Битрейт : 4552 Кбит/сек
Ширина : 1280 пикселей
Высота : 538 пикселей
Соотношение сторон : 2,40:1
Режим частоты кадров : Постоянный
Частота кадров : 23,976 кадра/сек
Цветовое пространство : YUV
Субдискретизация насыщенности : 4:2:0
Битовая глубина : 8 бит
Тип развёртки : Прогрессивная
Бит/(Пиксели*Кадры) : 0.276
Размер потока : 3,44 Гбайт (86%)
Библиотека кодирования : x264 core 146 r2538 121396c
Настройки программы : cabac=1 / ref=9 / deblock=1:-1:-1 / analyse=0x3:0x113 / me=umh / subme=10 / psy=1 / psy_rd=1.00:0.15 / mixed_ref=1 / me_range=32 / chroma_me=1 / trellis=2 / 8x8dct=1 / cqm=0 / deadzone=21,11 / fast_pskip=1 / chroma_qp_offset=-3 / threads=6 / lookahead_threads=1 / sliced_threads=0 / nr=0 / decimate=1 / interlaced=0 / bluray_compat=0 / constrained_intra=0 / bframes=11 / b_pyramid=2 / b_adapt=2 / b_bias=0 / direct=1 / weightb=1 / open_gop=0 / weightp=2 / keyint=230 / keyint_min=23 / scenecut=40 / intra_refresh=0 / rc_lookahead=40 / rc=crf / mbtree=0 / crf=20.0 / qcomp=0.60 / qpmin=0 / qpmax=69 / qpstep=4 / vbv_maxrate=40000 / vbv_bufsize=50000 / crf_max=0.0 / nal_hrd=none / filler=0 / ip_ratio=1.40 / pb_ratio=1.30 / aq=1:1.00
Язык : Spanish
Default : Да
Forced : Нет
DURATION : 01:48:11.402000000
NUMBER_OF_FRAMES : 155638
NUMBER_OF_BYTES : 3777131782
_STATISTICS_WRITING_APP : mkvmerge v7.9.0 ('Birds') 64bit
_STATISTICS_WRITING_DATE_UTC : 2015-06-28 07:16:27
_STATISTICS_TAGS : BPS DURATION NUMBER_OF_FRAMES NUMBER_OF_BYTES
Аудио #1
Идентификатор : 2
Формат : AC-3
Формат/Информация : Audio Coding 3
Расширение режима : CM (complete main)
Параметр Endianness формата : Big
Идентификатор кодека : A_AC3
Продолжительность : 1 ч. 48 м.
Вид битрейта : Постоянный
Битрейт : 192 Кбит/сек
Каналы : 2 канала
Расположение каналов : Front: L R
Частота : 48,0 КГц
Битовая глубина : 16 бит
Метод сжатия : С потерями
Размер потока : 149 Мбайт (4%)
Заголовок : VO (любительский одноголосый, R.A.I.M)
Язык : Russian
Default : Да
Forced : Нет
Аудио #2
Идентификатор : 3
Формат : AC-3
Формат/Информация : Audio Coding 3
Расширение режима : CM (complete main)
Параметр Endianness формата : Big
Идентификатор кодека : A_AC3
Продолжительность : 1 ч. 48 м.
Вид битрейта : Постоянный
Битрейт : 448 Кбит/сек
Каналы : 6 каналов
Расположение каналов : Front: L C R, Side: L R, LFE
Частота : 48,0 КГц
Битовая глубина : 16 бит
Метод сжатия : С потерями
Размер потока : 347 Мбайт (8%)
Заголовок : Original
Язык : Spanish
Default : Нет
Forced : Нет
Текст #1
Идентификатор : 4
Формат : UTF-8
Идентификатор кодека : S_TEXT/UTF8
Идентификатор кодека/Информация : UTF-8 Plain Text
Заголовок : русский (creo140)
Язык : Russian
Default : Нет
Forced : Нет
Текст #2
Идентификатор : 5
Формат : UTF-8
Идентификатор кодека : S_TEXT/UTF8
Идентификатор кодека/Информация : UTF-8 Plain Text
Заголовок : английский
Default : Нет
Forced : Нет

Скриншоты

[Профиль] [ЛС]
Показать сообщения:    

Текущее время: Сегодня 04:49

Часовой пояс: GMT



Вы не можете начинать темы
Вы не можете отвечать на сообщения
Вы не можете редактировать свои сообщения
Вы не можете удалять свои сообщения
Вы не можете голосовать в опросах
Вы не можете прикреплять файлы к сообщениям
Вы не можете скачивать файлы