Золотая дверь / Falling Up (Дэвид М. Розенталь / David M. Rosenthal) [2009, США, драма, мелодрама, комедия, BDRip] DVO (R5) + Sub (Eng) + Original (Eng)

 
Автор Сообщение

TorrentFilm ®

Пол:

Стаж: 2 года

Сообщений: 7741



Награды: Нет

Торрент-статистика

Создавать темы 09-Апр-2016 01:09

[Цитировать]

Золотая дверь / Falling Up
Страна: США
Жанр: драма, мелодрама, комедия
Годы выпуска: 2009
Продолжительность: 01:38:26
Перевод: Профессиональный (двухголосый закадровый) Лицензия
Субтитры: английские
Оригинальная аудиодорожка: английский
Режиссер: Дэвид М. Розенталь / David M. Rosenthal
В ролях: Джозеф Кросс, Сара Ремер, Рэйчел Ли Кук, Мими Роджерс, Аннетт О’Тул, Гордон Клэпп, Джо Пантольяно, Кэлвин Бродас (Снуп Догг), Сэмюэл Пейдж, Джим Пиддок, Фрэнки Шоу, Майкл Пэйнс, Питер Джейсон, Аджай Найду
Описание: Студент медицины вынужденный оставить школу по семейным причинам, устраивается на работу швейцаром в элитный жилой дом в Нью-Йорке, где он влюбляется в одну из его жителей.
Доп. информация:
Качество видео: BDRip | irrlicht/1080p BD-Remux
Формат видео: AVI
Видео: 704x400 (1.76:1), 23.976 fps, XviD build 73 ~1533 kbps avg, 0.23 bit/pixel
Аудио 1: 48 kHz, AC3 Dolby Digital, 2/0 (L,R) ch, ~192 kbps DVO
Аудио 2: 48 kHz, AC3 Dolby Digital, 3/2 (L,C,R,l,r) + LFE ch, ~384 kbps оригинал
Формат субтитров: softsub (SRT)

MediaInfo

General
Complete name : C:\Falling.Up.2009.BDRip.DVO.Eng_by_LBS.avi
Format : AVI
Format/Info : Audio Video Interleave
File size : 1.46 GiB
Duration : 1h 38mn
Overall bit rate : 2 122 Kbps
Director : Last Boy Scout
Writing application : VirtualDubMod 1.5.10.3 | www.virtualdub-fr.org || (build 2550/release)
Copyright : torrentfilm.net 08.04.2016
Comment : BDRip DVO (R5) + Original (Eng)
Video
ID : 0
Format : MPEG-4 Visual
Format profile : Advanced Simple@L5
Format settings, BVOP : 1
Format settings, QPel : No
Format settings, GMC : No warppoints
Format settings, Matrix : Custom
Codec ID : XVID
Codec ID/Hint : XviD
Duration : 1h 38mn
Bit rate : 1 532 Kbps
Width : 704 pixels
Height : 400 pixels
Display aspect ratio : 16:9
Frame rate : 23.976 fps
Color space : YUV
Chroma subsampling : 4:2:0
Bit depth : 8 bits
Scan type : Progressive
Compression mode : Lossy
Bits/(Pixel*Frame) : 0.227
Stream size : 1.05 GiB (72%)
Writing library : XviD 73
Audio #1
ID : 1
Format : AC-3
Format/Info : Audio Coding 3
Mode extension : CM (complete main)
Format settings, Endianness : Big
Codec ID : 2000
Duration : 1h 38mn
Bit rate mode : Constant
Bit rate : 192 Kbps
Channel(s) : 2 channels
Channel positions : Front: L R
Sampling rate : 48.0 KHz
Bit depth : 16 bits
Compression mode : Lossy
Stream size : 135 MiB (9%)
Alignment : Split accross interleaves
Interleave, duration : 42 ms (1.00 video frame)
Interleave, preload duration : 500 ms
Audio #2
ID : 2
Format : AC-3
Format/Info : Audio Coding 3
Mode extension : CM (complete main)
Format settings, Endianness : Big
Codec ID : 2000
Duration : 1h 38mn
Bit rate mode : Constant
Bit rate : 384 Kbps
Channel(s) : 6 channels
Channel positions : Front: L C R, Side: L R, LFE
Sampling rate : 48.0 KHz
Bit depth : 16 bits
Compression mode : Lossy
Stream size : 270 MiB (18%)
Alignment : Split accross interleaves
Interleave, duration : 42 ms (1.00 video frame)
Interleave, preload duration : 500 ms

Скриншоты

Сравнение

[url=viewtopic.php?t=4192935]http://torrentfilm.net/forum/viewtopic.php?t=4192935[/url]
http://screenshotcomparison.com/comparison/168480
Перевод тот же-
-
-[url=viewtopic.php?t=2711958]http://torrentfilm.net/forum/viewtopic.php?t=2711958[/url]
http://screenshotcomparison.com/comparison/168482
Перевод: Любительский (двухголосый)
-
[Профиль] [ЛС]

Создавать темы 12-Июн-2016 07:56 (спустя 2 месяца 3 дня)

Топик был перенесен из форума Фильмы 2011 года в форум Фильмы 2009 года
Russian Mafia
 
Показать сообщения:    

Текущее время: Сегодня 08:13

Часовой пояс: GMT



Вы не можете начинать темы
Вы не можете отвечать на сообщения
Вы не можете редактировать свои сообщения
Вы не можете удалять свои сообщения
Вы не можете голосовать в опросах
Вы не можете прикреплять файлы к сообщениям
Вы не можете скачивать файлы