Зодиак / Zodiac (2007) HDRip от Шкипер | Director's Cut | D

 
Автор Сообщение

Russian Mafia ®

Пол:

Стаж: 1 год 8 месяцев

Сообщений: 4257



Награды: 10 (Подробнее)

За внесенный вклад в развитие сайта (Количество: 1) Mega Seeder 5 (Количество: 1) Top Releaser 2 (Количество: 1)
Торрент-статистика

Создавать темы 05-Авг-2016 18:31

[Цитировать]

Информация о фильме
Название: Зодиак
Оригинальное название: Zodiac
Год выхода: 2007
Жанр: Триллер, драма, криминал, детектив, экранизация
Режиссер: Дэвид Финчер
В ролях: Джейк Джилленхол, Марк Руффало, Энтони Эдвардс, Роберт Дауни мл., Брайан Кокс, Джон Кэрролл Линч, Ричмонд Аркетт, Роберт Дж. Стефенсон, Джон Лэси, Клоэ Севиньи, Джон Гетз, Джон Терри, Кэнди Кларк, Элиас Котеас, Дермот Малруни, Донал Лог, Джун Рафаэль, Сиара Хьюз, Ли Норрис, Филип Бэйкер Холл, Пелл Джеймс, Дэвид Ли Смит, Чарльз Шнайдер, Жуль Брафф, Адам Голдберг, Адам Трези
О фильме:
На протяжении почти 25 лет он держал в страхе весь Сан-Франциско. Общаясь с властями через репортеров, он в своих письмах и шифрах жестоко упрекал полицию в бездействии. «Зодиак» то пропадал на время, то появлялся вновь. Порой полиция начинала сомневаться в том, что за очередным убийством стоял именно тот, за кем они так тщетно охотились, а не какой-нибудь имитатор. Однако и почерк убийств и письма репортерам говорили о том, что «Зодиак» еще не отошел от дел.

Страна: США
Студия: Digital Domain, Mar Vista Ventures, Matte World Digital, Ollin Studio
Продолжительность: 02:42:36
Перевод: Профессиональный (полное дублирование)
Профессиональный (полное дублирование)+ вставки Д.Штампа
Профессиональный (полное дублирование)+ вставки Гаврилова
Файл
Кодек: XviD
Качество: HDRip
Видео: 688x288 (2.39:1), 23.976 fps, XviD MPEG-4 ~857 kbps avg, 0.18 bit/pixel
Звук:
#1: 48 kHz, AC3 Dolby Digital, 3/2 (L,C,R,l,r) + LFE ch, ~384 kbps
#2: 48 kHz, AC3 Dolby Digital, 3/2 (L,C,R,l,r) + LFE ch, ~384 kbps
#3: 48 kHz, AC3 Dolby Digital, 6 ch, ~384.00 kbps avg
Субтитры: Вшитые русские (Forced)
Семпл

MI

General
Complete name : D:ТоррентыРип от ШкиперЗодиакZodiac.2007.HDRip.by shkiper.avi
Format : AVI
Format/Info : Audio Video Interleave
Format profile : OpenDML
File size : 2.29 GiB
Duration : 2h 42mn
Overall bit rate : 2 016 Kbps
Writing application : VirtualDubMod 1.5.10.2 (build 2540/release)
Writing library : VirtualDubMod build 2540/release
Video
ID : 0
Format : MPEG-4 Visual
Format profile : Advanced Simple@L5
Format settings, BVOP : 1
Format settings, QPel : No
Format settings, GMC : No warppoints
Format settings, Matrix : Custom
Codec ID : XVID
Codec ID/Hint : XviD
Duration : 2h 42mn
Bit rate : 842 Kbps
Width : 688 pixels
Height : 288 pixels
Display aspect ratio : 2.40:1
Frame rate : 23.976 (23976/1000) fps
Color space : YUV
Chroma subsampling : 4:2:0
Bit depth : 8 bits
Scan type : Progressive
Compression mode : Lossy
Bits/(Pixel*Frame) : 0.177
Stream size : 979 MiB (42%)
Writing library : XviD 73
Audio #1
ID : 1
Format : AC-3
Format/Info : Audio Coding 3
Mode extension : CM (complete main)
Format settings, Endianness : Big
Codec ID : 2000
Duration : 2h 42mn
Bit rate mode : Constant
Bit rate : 384 Kbps
Channel(s) : 6 channels
Channel positions : Front: L C R, Side: L R, LFE
Sampling rate : 48.0 KHz
Frame rate : 31.250 fps (1536 spf)
Compression mode : Lossy
Stream size : 446 MiB (19%)
Alignment : Split accross interleaves
Interleave, duration : 42 ms (1.00 video frame)
Interleave, preload duratio : 500 ms
Audio #2
ID : 2
Format : AC-3
Format/Info : Audio Coding 3
Mode extension : CM (complete main)
Format settings, Endianness : Big
Codec ID : 2000
Duration : 2h 42mn
Bit rate mode : Constant
Bit rate : 384 Kbps
Channel(s) : 6 channels
Channel positions : Front: L C R, Side: L R, LFE
Sampling rate : 48.0 KHz
Frame rate : 31.250 fps (1536 spf)
Compression mode : Lossy
Stream size : 446 MiB (19%)
Alignment : Split accross interleaves
Interleave, duration : 42 ms (1.00 video frame)
Interleave, preload duratio : 500 ms
Audio #3
ID : 3
Format : AC-3
Format/Info : Audio Coding 3
Mode extension : CM (complete main)
Format settings, Endianness : Big
Codec ID : 2000
Duration : 2h 42mn
Bit rate mode : Constant
Bit rate : 384 Kbps
Channel(s) : 6 channels
Channel positions : Front: L C R, Side: L R, LFE
Sampling rate : 48.0 KHz
Frame rate : 31.250 fps (1536 spf)
Compression mode : Lossy
Stream size : 447 MiB (19%)
Alignment : Split accross interleaves
Interleave, duration : 42 ms (1.00 video frame)
Interleave, preload duratio : 500 ms

Скриншоты

Релиз от:
[Профиль] [ЛС]
Кто просматривает тему:

Форум Тема Автор Размер
Фильмы (HD Rips | 720p, 1080p) Доспехи Бога 3: Миссия Зодиак / Chinese Zodiac (2012) BDRip 1080p | D sergej644 7.76 GB
Фильмы (HD Rips | 720p, 1080p) Доспехи Бога 3: Миссия Зодиак / Chinese Zodiac (2012) BDRip 720p | D sergej644 4.37 GB
Фильмы 2012 года Доспехи Бога 3: Миссия Зодиак / Chinese Zodiac (2012) BDRip-AVC от potroks | D | Лицензия Russian Mafia 2.44 GB
Зарубежные Доспехи Бога 3: Миссия Зодиак / Chinese Zodiac (Джеки Чан / Jackie Chan) [2012, Гонконг, Китай, Боевик, комедия, приключения, Blu-ray 1080p] BD3D TorrentFilm 35.17 GB
Зарубежные Доспехи Бога 3: Миссия Зодиак в 3Д / Chinese Zodiac 3D (Джеки Чан / Jackie Chan) [2012, Боевик, Комедия, Приключения, BDrip-AVC] Half OverUnder / Вертикальная анаморфная стереопара TorrentFilm 17.29 GB
Зарубежные Доспехи Бога 3: Миссия Зодиак в 3Д / Chinese Zodiac 3D (Джеки Чан / Jackie Chan) [2012, боевик, комедия, приключения, Blu-ray disc 1080p] BD3D RUS TorrentFilm 35.17 GB
Фильмы (HD DVD, Blu-ray и BDRemux) Зодиак / Zodiac (2007) BD-Remux 1080p | Director's Cut | Лицензия Russian Mafia 45.16 GB
Фильмы (HD Rips | 720p, 1080p) Зодиак / Zodiac (2007) BDRip 1080p | Director's Cut | Лицензия Russian Mafia 14.05 GB
Показать сообщения:    

Текущее время: Сегодня 05:16

Часовой пояс: GMT



Вы не можете начинать темы
Вы не можете отвечать на сообщения
Вы не можете редактировать свои сообщения
Вы не можете удалять свои сообщения
Вы не можете голосовать в опросах
Вы не можете прикреплять файлы к сообщениям
Вы не можете скачивать файлы