Зодиак / Zodiac (2007) BDRip 720p | Director's Cut | Лицензия

 
Автор Сообщение

Russian Mafia ®

Пол:

Стаж: 1 год 8 месяцев

Сообщений: 4257



Награды: 10 (Подробнее)

Top Releaser 5 (Количество: 1) Top Releaser 3 (Количество: 1) За внесенный вклад в развитие сайта (Количество: 1)
Торрент-статистика

Создавать темы 25-Авг-2015 15:18

[Цитировать]

Информация о фильме
Название: Зодиак
Оригинальное название: Zodiac
Год выхода: 2007
Жанр: триллер, драма, криминал, биография
Режиссер: Дэвид Финчер
В ролях: Джейк Джилленхол, Марк Руффало, Энтони Эдвардс, Роберт Дауни мл., Хлоя Севиньи, Джон Кэрролл Линч, Брайан Кокс, Элиас Котеас, Дермот Малруни, Донал Лог
О фильме: На протяжении почти 25 лет он держал в страхе весь Сан-Франциско. Общаясь с властями через репортеров, он в своих письмах и шифрах жестоко упрекал полицию в бездействии. «Зодиак» то пропадал на время, то появлялся вновь. Порой полиция начинала сомневаться в том, что за очередным убийством стоял именно тот, за кем они так тщетно охотились, а не какой-нибудь имитатор. Однако и почерк убийств и письма репортерам говорили о том, что «Зодиак» еще не отошел от дел.

Выпущено: Paramount Pictures, Warner Bros.
Продолжительность: 02:42:36
Перевод: Дублированный (R5) + авторский одноголосый закадровый (А.Гаврилов) + украинский многоголосый закадровый (ICTV) + Director's Commentary + Cast and Crew Commentary + Оригинал
Файл
Кодек: x264
Качество: BDRip (источник: Blu-ray Disc)
Видео: 1280x534 (2,40:1), 23.976 fps, 4623 kbps
Аудио #1: AC-3, 6 ch, 640 kbps (Rus) - Дубляж, R5
Аудио #2: AC-3, 6 ch, 448 kbps (Rus) - Одноголосый закадровый, А.Гаврилов
Аудио #3: AC-3, 6 ch, 384 kbps (Ukr) - Многоголосый закадровый, ICTV
Аудио #4: AC-3, 6 ch, 640 kbps (Eng) - Оригинал
Аудио #5: AC-3, 2 ch, 224 kbps (Eng) - Director's Commentary
Аудио #6: AC-3, 2 ch, 224 kbps (Eng) - Cast and Crew Commentary
Субтитры: Русские (форс,полные), Украинские (форс), Английские
Скриншоты

MI

General
Unique ID : 254842149208552720609913759802541048355 (0xBFB8D00835C4B75FB9D77D9137618223)
Complete name : D:Zodiac.2007.Director's.Cut.720p.BDRip.2xRus.Ukr.3xEng.HDCLUB.mkv
Format : Matroska
Format version : Version 2
File size : 8.16 GiB
Duration : 2h 42mn
Overall bit rate : 7 186 Kbps
Movie name : Зодиак / Zodiac (2007) [Director's Cut] - Release for HDCLUB
Encoded date : UTC 2015-08-21 07:52:27
Writing application : mkvmerge v5.8.0 ('No Sleep / Pillow') built on Sep 2 2012 15:37:04
Writing library : libebml v1.2.3 + libmatroska v1.3.0
Attachements : cover.png / logfile.log
Video
ID : 1
Format : AVC
Format/Info : Advanced Video Codec
Format profile : High@L4.1
Format settings, CABAC : Yes
Format settings, ReFrames : 12 frames
Codec ID : V_MPEG4/ISO/AVC
Duration : 2h 42mn
Bit rate : 4 483 Kbps
Width : 1 280 pixels
Height : 534 pixels
Display aspect ratio : 2.40:1
Frame rate mode : Constant
Frame rate : 23.976 fps
Color space : YUV
Chroma subsampling : 4:2:0
Bit depth : 8 bits
Scan type : Progressive
Bits/(Pixel*Frame) : 0.274
Stream size : 5.09 GiB (62%)
Title : Зодиак / Zodiac (2007) [Director's Cut] - Release for HDCLUB
Writing library : x264 core 142 r2431+42 c69a006 tMod [8-bit@all X86_64]
Encoding settings : cabac=1 / ref=12 / deblock=1:-3:-3 / analyse=0x3:0x133 / me=umh / subme=10 / psy=1 / fade_compensate=0.00 / psy_rd=1.10:0.00 / mixed_ref=1 / me_range=32 / chroma_me=1 / trellis=2 / 8x8dct=1 / cqm=0 / deadzone=21,11 / fast_pskip=0 / chroma_qp_offset=-2 / threads=6 / lookahead_threads=1 / sliced_threads=0 / nr=0 / decimate=0 / interlaced=0 / bluray_compat=0 / constrained_intra=0 / fgo=0 / bframes=8 / b_pyramid=2 / b_adapt=2 / b_bias=0 / direct=3 / weightb=1 / open_gop=0 / weightp=2 / keyint=250 / keyint_min=23 / scenecut=40 / intra_refresh=0 / rc=crf / mbtree=0 / crf=16.0000 / qcomp=0.60 / qpmin=0:0:0 / qpmax=69:69:69 / qpstep=4 / ip_ratio=1.20 / pb_ratio=1.10 / aq=4:1.05 / aq-sensitivity=10.00 / aq-factor=1.00:1.00:1.00 / aq2=0 / aq3=0
Language : English
Default : Yes
Forced : No
Audio #1
ID : 2
Format : AC-3
Format/Info : Audio Coding 3
Mode extension : CM (complete main)
Format settings, Endianness : Big
Codec ID : A_AC3
Duration : 2h 42mn
Bit rate mode : Constant
Bit rate : 640 Kbps
Channel(s) : 6 channels
Channel positions : Front: L C R, Side: L R, LFE
Sampling rate : 48.0 KHz
Bit depth : 16 bits
Compression mode : Lossy
Stream size : 744 MiB (9%)
Title : Дубляж, R5
Language : Russian
Default : Yes
Forced : No
Audio #2
ID : 3
Format : AC-3
Format/Info : Audio Coding 3
Mode extension : CM (complete main)
Format settings, Endianness : Big
Codec ID : A_AC3
Duration : 2h 42mn
Bit rate mode : Constant
Bit rate : 448 Kbps
Channel(s) : 6 channels
Channel positions : Front: L C R, Side: L R, LFE
Sampling rate : 48.0 KHz
Bit depth : 16 bits
Compression mode : Lossy
Stream size : 521 MiB (6%)
Title : Одноголосый закадровый, А.Гаврилов
Language : Russian
Default : No
Forced : No
Audio #3
ID : 4
Format : AC-3
Format/Info : Audio Coding 3
Mode extension : CM (complete main)
Format settings, Endianness : Big
Codec ID : A_AC3
Duration : 2h 42mn
Bit rate mode : Constant
Bit rate : 384 Kbps
Channel(s) : 6 channels
Channel positions : Front: L C R, Side: L R, LFE
Sampling rate : 48.0 KHz
Bit depth : 16 bits
Compression mode : Lossy
Stream size : 447 MiB (5%)
Title : Многоголосый закадровый, ICTV
Language : Ukrainian
Default : No
Forced : No
Audio #4
ID : 5
Format : AC-3
Format/Info : Audio Coding 3
Mode extension : CM (complete main)
Format settings, Endianness : Big
Codec ID : A_AC3
Duration : 2h 42mn
Bit rate mode : Constant
Bit rate : 640 Kbps
Channel(s) : 6 channels
Channel positions : Front: L C R, Side: L R, LFE
Sampling rate : 48.0 KHz
Bit depth : 16 bits
Compression mode : Lossy
Stream size : 744 MiB (9%)
Title : English
Language : English
Default : No
Forced : No
Audio #5
ID : 6
Format : AC-3
Format/Info : Audio Coding 3
Format profile : Dolby Digital
Mode extension : CM (complete main)
Format settings, Endianness : Big
Codec ID : A_AC3
Duration : 2h 42mn
Bit rate mode : Constant
Bit rate : 224 Kbps
Channel(s) : 2 channels
Channel positions : Front: L R
Sampling rate : 48.0 KHz
Bit depth : 16 bits
Compression mode : Lossy
Stream size : 261 MiB (3%)
Title : Director's Commentary
Language : English
Default : No
Forced : No
Audio #6
ID : 7
Format : AC-3
Format/Info : Audio Coding 3
Format profile : Dolby Digital
Mode extension : CM (complete main)
Format settings, Endianness : Big
Codec ID : A_AC3
Duration : 2h 42mn
Bit rate mode : Constant
Bit rate : 224 Kbps
Channel(s) : 2 channels
Channel positions : Front: L R
Sampling rate : 48.0 KHz
Bit depth : 16 bits
Compression mode : Lossy
Stream size : 261 MiB (3%)
Title : Cast and Crew Commentary
Language : English
Default : No
Forced : No
Text #1
ID : 8
Format : UTF-8
Codec ID : S_TEXT/UTF8
Codec ID/Info : UTF-8 Plain Text
Title : Russian (Forced)
Language : Russian
Default : Yes
Forced : No
Text #2
ID : 9
Format : UTF-8
Codec ID : S_TEXT/UTF8
Codec ID/Info : UTF-8 Plain Text
Title : Russian
Language : Russian
Default : No
Forced : No
Text #3
ID : 10
Format : UTF-8
Codec ID : S_TEXT/UTF8
Codec ID/Info : UTF-8 Plain Text
Title : Ukrainian (Forced)
Language : Ukrainian
Default : No
Forced : No
Text #4
ID : 11
Format : UTF-8
Codec ID : S_TEXT/UTF8
Codec ID/Info : UTF-8 Plain Text
Title : English
Language : English
Default : No
Forced : No
Text #5
ID : 12
Format : UTF-8
Codec ID : S_TEXT/UTF8
Codec ID/Info : UTF-8 Plain Text
Title : English (SDH)
Language : English
Default : No
Forced : No
Menu
00:00:00.000 : :Chapter 01
00:06:19.212 : :Chapter 02
00:14:27.366 : :Chapter 03
00:17:39.058 : :Chapter 04
00:24:19.458 : :Chapter 05
00:31:34.225 : :Chapter 06
00:36:32.523 : :Chapter 07
00:42:18.369 : :Chapter 08
00:49:14.618 : :Chapter 09
00:55:51.014 : :Chapter 10
01:01:02.158 : :Chapter 11
01:06:51.506 : :Chapter 12
01:12:12.161 : :Chapter 13
01:17:48.664 : :Chapter 14
01:21:38.727 : :Chapter 15
01:34:37.171 : :Chapter 16
01:36:57.978 : :Chapter 17
01:41:54.274 : :Chapter 18
01:47:57.637 : :Chapter 19
01:56:02.455 : :Chapter 20
02:01:21.107 : :Chapter 21
02:07:19.965 : :Chapter 22
02:14:15.379 : :Chapter 23
02:21:36.154 : :Chapter 24
02:28:03.374 : :Chapter 25
02:34:35.432 : :Chapter 26
02:39:27.391 : :Chapter 27
02:42:36.495 : :Chapter 28

x264

x264 [info]: frame I:2009 Avg QP:13.28 size:116718
x264 [info]: frame P:45700 Avg QP:14.69 size: 46356
x264 [info]: frame B:186189 Avg QP:14.51 size: 17639
[Профиль] [ЛС]
Кто просматривает тему:

Форум Тема Автор Размер
Фильмы (HD Rips | 720p, 1080p) Доспехи Бога 3: Миссия Зодиак / Chinese Zodiac (2012) BDRip 1080p | D sergej644 7.76 GB
Фильмы (HD Rips | 720p, 1080p) Доспехи Бога 3: Миссия Зодиак / Chinese Zodiac (2012) BDRip 720p | D sergej644 4.37 GB
Фильмы 2012 года Доспехи Бога 3: Миссия Зодиак / Chinese Zodiac (2012) BDRip-AVC от potroks | D | Лицензия Russian Mafia 2.44 GB
Зарубежные Доспехи Бога 3: Миссия Зодиак / Chinese Zodiac (Джеки Чан / Jackie Chan) [2012, Гонконг, Китай, Боевик, комедия, приключения, Blu-ray 1080p] BD3D TorrentFilm 35.17 GB
Зарубежные Доспехи Бога 3: Миссия Зодиак в 3Д / Chinese Zodiac 3D (Джеки Чан / Jackie Chan) [2012, Боевик, Комедия, Приключения, BDrip-AVC] Half OverUnder / Вертикальная анаморфная стереопара TorrentFilm 17.29 GB
Зарубежные Доспехи Бога 3: Миссия Зодиак в 3Д / Chinese Zodiac 3D (Джеки Чан / Jackie Chan) [2012, боевик, комедия, приключения, Blu-ray disc 1080p] BD3D RUS TorrentFilm 35.17 GB
Фильмы (HD DVD, Blu-ray и BDRemux) Зодиак / Zodiac (2007) BD-Remux 1080p | Director's Cut | Лицензия Russian Mafia 45.16 GB
Фильмы (HD Rips | 720p, 1080p) Зодиак / Zodiac (2007) BDRip 1080p | Director's Cut | Лицензия Russian Mafia 14.05 GB
Показать сообщения:    

Текущее время: Сегодня 02:29

Часовой пояс: GMT



Вы не можете начинать темы
Вы не можете отвечать на сообщения
Вы не можете редактировать свои сообщения
Вы не можете удалять свои сообщения
Вы не можете голосовать в опросах
Вы не можете прикреплять файлы к сообщениям
Вы не можете скачивать файлы