Зов природы / Cattle Call (Мартин Гиги / Martin Guigui) [2006, США, комедия, DVDRip-AVC] DVO + Sub Eng + Original Eng

 
Автор Сообщение

TorrentFilm ®

Пол:

Стаж: 2 года

Сообщений: 7741



Награды: Нет

Торрент-статистика

Создавать темы 23-Май-2015 00:04

[Цитировать]

Зов природы / Cattle Call
Страна: США
Жанр: комедия
Год выпуска: 2006
Продолжительность: 01:23:39
Перевод: Профессиональный (двухголосый закадровый)
Cубтитры: английские
Оригинальная аудиодорожка: английский отдельным файлом
Режиссер: Мартин Гиги / Martin Guigui
В ролях: Томас Иэн Николас, Дженни Моллен, Николь Эггерт, Дидрих Бадер, Эндрю Катос, Челси Хэндлер, Джонатан Уинтерс, Пол Мазурски, Лиза Артуро, Танджарин Мартин...
Описание: Трое приятелей придумывают оригинальный способ решить проблему знакомства с девушками. Они объявляют о наборе актрис для фильма, а сами представляются продюсерами. К ним выстраивается очередь из юных и не очень актрис, ведь сниматься в кино и стать звездами хотят все девушки. И ради этого они готовы на все!
Доп. информация: 5.1 в исходнике оказалась фейковой, поэтому была перекодирована в стерео.
Сэмпл: http://multi-up.com/1049586
Качество видео: DVDRip-AVC Исходник
Формат видео: MKV
Видео: 720x576 (4:3) @ 768x576, 25.000 fps, AVC, ~2280 Kbps, 0.220 bits/pixel
Аудио 1: Russian, 48.0 KHz, AC3, 2 ch, 192 Kbps
Аудио 2: English, 48.0 KHz, AC3, 2 ch, 192 Kbps отдельным файлом

MediaInfo

General
Unique ID : 217461261768248997788934555394672471391 (0xA39983FCF1AE810EA574EC1A8F50AD5F)
Complete name : C:\Cattle Call\Cattle Call.mkv
Format : Matroska
Format version : Version 4 / Version 2
File size : 1.45 GiB
Duration : 1h 23mn
Overall bit rate : 2 474 Kbps
Encoded date : UTC 2015-05-19 19:08:16
Writing application : mkvmerge v7.9.0 ('Birds') 64bit
Writing library : libebml v1.3.1 + libmatroska v1.4.2
DURATION : 01:18:55.460000000
NUMBER_OF_FRAMES : 1767
NUMBER_OF_BYTES : 57573
_STATISTICS_WRITING_APP : mkvmerge v7.9.0 ('Birds') 64bit
_STATISTICS_WRITING_DATE_UT : 2015-05-19 19:08:16
_STATISTICS_TAGS : BPS DURATION NUMBER_OF_FRAMES NUMBER_OF_BYTES
Video
ID : 1
Format : AVC
Format/Info : Advanced Video Codec
Format profile : High@L3.1
Format settings, CABAC : Yes
Format settings, ReFrames : 10 frames
Codec ID : V_MPEG4/ISO/AVC
Duration : 1h 23mn
Bit rate : 2 280 Kbps
Width : 720 pixels
Height : 576 pixels
Display aspect ratio : 4:3
Frame rate mode : Constant
Frame rate : 25.000 fps
Standard : PAL
Color space : YUV
Chroma subsampling : 4:2:0
Bit depth : 8 bits
Scan type : Progressive
Bits/(Pixel*Frame) : 0.220
Stream size : 1.30 GiB (90%)
Writing library : x264 core 146 r2538 121396c
Encoding settings : cabac=1 / ref=10 / deblock=1:-1:-1 / analyse=0x3:0x133 / me=umh / subme=10 / psy=1 / psy_rd=1.00:0.10 / mixed_ref=1 / me_range=32 / chroma_me=1 / trellis=2 / 8x8dct=1 / cqm=0 / deadzone=21,11 / fast_pskip=0 / chroma_qp_offset=-3 / threads=6 / lookahead_threads=1 / sliced_threads=0 / nr=0 / decimate=1 / interlaced=0 / bluray_compat=0 / constrained_intra=0 / bframes=10 / b_pyramid=2 / b_adapt=2 / b_bias=0 / direct=3 / weightb=1 / open_gop=0 / weightp=2 / keyint=250 / keyint_min=25 / scenecut=40 / intra_refresh=0 / rc_lookahead=50 / rc=2pass / mbtree=1 / bitrate=2280 / ratetol=1.0 / qcomp=0.60 / qpmin=0 / qpmax=69 / qpstep=4 / cplxblur=20.0 / qblur=0.5 / ip_ratio=1.40 / aq=1:1.00
Language : English
Default : Yes
Forced : No
Audio
ID : 2
Format : AC-3
Format/Info : Audio Coding 3
Mode extension : CM (complete main)
Format settings, Endianness : Big
Codec ID : A_AC3
Duration : 1h 23mn
Bit rate mode : Constant
Bit rate : 192 Kbps
Channel(s) : 2 channels
Channel positions : Front: L R
Sampling rate : 48.0 KHz
Bit depth : 16 bits
Compression mode : Lossy
Stream size : 115 MiB (8%)
Language : Russian
Default : Yes
Forced : No
Text
ID : 3
Format : UTF-8
Codec ID : S_TEXT/UTF8
Codec ID/Info : UTF-8 Plain Text
Language : English
Default : No
Forced : No
Menu
00:00:00.000 : :Chapter 01
00:11:13.200 : :Chapter 02
00:21:27.280 : :Chapter 03
00:30:18.960 : :Chapter 04
00:39:17.160 : :Chapter 05
00:51:02.880 : :Chapter 06
01:00:47.760 : :Chapter 07
01:16:47.040 : :Chapter 08

Скриншоты

[Профиль] [ЛС]

Создавать темы 06-Авг-2015 22:31 (спустя 2 месяца 14 дней)

Топик был перенесен из форума Фильмы до 2014 года в форум Фильмы до 2012 года
sergej644
 
Кто просматривает тему:

Показать сообщения:    

Текущее время: Сегодня 18:46

Часовой пояс: GMT



Вы не можете начинать темы
Вы не можете отвечать на сообщения
Вы не можете редактировать свои сообщения
Вы не можете удалять свои сообщения
Вы не можете голосовать в опросах
Вы не можете прикреплять файлы к сообщениям
Вы не можете скачивать файлы