Знать бы, что я гений / If I Had Known I Was a Genius (Доминик Уиртшафтер / Dominique Wirtschafter) [2007, США, драма, комедия, DVDRip] Dub + MVO + Sub Rus + Original Eng

 
Автор Сообщение

TorrentFilm ®

Пол:

Стаж: 1 год 11 месяцев

Сообщений: 7741



Награды: Нет

Торрент-статистика

Создавать темы 14-Авг-2015 00:08

[Цитировать]

Знать бы, что я гений / If I Had Known I Was a Genius
Страна: США
Жанр: драма, комедия
Год выпуска: 2007
Продолжительность: 01:37:26
Перевод: Профессиональный (дублированный)
Перевод: Профессиональный (многоголосый закадровый)
Cубтитры: русские
Оригинальная аудиодорожка: английский

Режиссер: Доминик Уиртшафтер / Dominique Wirtschafter
В ролях: Маркус Редмонд, Вупи Голдберг, Кит Дэвид, Дебра Уилсон, Шэрон Стоун, Тара Рид, Делла Риз, Никита Аджер, Рид Александр, Джон Балма
Описание: Майкл Рид был совершенно счастлив и доволен собой, живя в своем маленьком мире, наполненном рок-н-роллом, но только до тех пор, пока его мать не узнала, что его умственный коэффициент зашкалил за 165. Все бы хорошо, но мальчишка решил стать актером, самой настоящей звездой. И тут начинаются приключения…
Качество видео: DVDRip
Формат видео: AVI
Видео: 704x400 (1.76:1), 25 fps, XviD build 73 ~1682 kbps avg, 0.24 bit/pixel
Аудио: 48 kHz, AC3 Dolby Digital, 3/2 (L,C,R,l,r) + LFE ch, ~448 kbps - дубляж
отдельными файлами:
Аудио: 48 kHz, AC3 Dolby Digital, 3/2 (L,C,R,l,r) + LFE ch, ~384 kbps - многоголосый
Аудио: 48 kHz, AC3 Dolby Digital, 3/2 (L,C,R,l,r) + LFE ch, ~448 kbps - оригинал

MediaInfo

Общее
Полное имя : H:\If.I.Had.Known.I.Was.a.Genius.2007.dvdrip_[1.46]_[teko]\If.I.Had.Known.I.Was.a.Genius.2007.dvdrip_[1.46].avi
Формат : AVI
Формат/Информация : Audio Video Interleave
Размер файла : 1,46 Гбайт
Продолжительность : 1 ч. 37 м.
Общий поток : 2140 Кбит/сек
Программа кодирования : VirtualDubMod 1.5.10.3 | www.virtualdub-fr.org || (build 2550/release)
Библиотека кодирования : VirtualDubMod build 2550/release
Видео
Идентификатор : 0
Формат : MPEG-4 Visual
Профиль формата : Advanced Simple@L5
Параметр BVOP формата : 1
Параметр QPel формата : Нет
Параметр GMC формата : Без точки перехода
Параметр матрицы формата : Выборочная
Идентификатор кодека : XVID
Идентификатор кодека/Подсказка : XviD
Продолжительность : 1 ч. 37 м.
Битрейт : 1683 Кбит/сек
Ширина : 704 пикселя
Высота : 400 пикселей
Соотношение сторон : 16:9
Частота кадров : 25,000 кадров/сек
Цветовое пространство : YUV
Субдискретизация насыщенности : 4:2:0
Битовая глубина : 8 бит
Тип развёртки : Прогрессивная
Метод сжатия : С потерями
Бит/(Пиксели*Кадры) : 0.239
Размер потока : 1,15 Гбайт (79%)
Библиотека кодирования : XviD 73
Аудио
Идентификатор : 1
Формат : AC-3
Формат/Информация : Audio Coding 3
Расширение режима : CM (complete main)
Параметр Endianness формата : Big
Идентификатор кодека : 2000
Продолжительность : 1 ч. 37 м.
Вид битрейта : Постоянный
Битрейт : 448 Кбит/сек
Каналы : 6 каналов
Расположение каналов : Front: L C R, Side: L R, LFE
Частота : 48,0 КГц
Битовая глубина : 16 бит
Метод сжатия : С потерями
Задержка видео : 1 с. 0 мс.
Размер потока : 312 Мбайт (21%)
Выравнивание : Разделение по промежуткам
Продолжительность промежутка : 40 мс. (1,00 видеокадр)
Время предзагрузки промежутка : 500 мс.
Релиз группы:
--
[Профиль] [ЛС]
Кто просматривает тему:

Форум Тема Автор Размер
BBC BBC: Все что вы хотели о нем знать, но боялись спросить. Жир / The Truth About Fat (Matt Ainsworth) [2015 г., Документальный, научно-познавательный, HDTVRip 720p] skorpionN 1.21 GB
Научная и техническая литература Дмитрий Макарский - 100 способов ускорить работу компьютера, о которых должен знать каждый (2016) PDF достали все 5 MB
Фильмы 2011 года Доклад о школьницах 8: Что родители не должны знать / Schulmädchen-Report 8. Teil - Was Eltern nie erfahren dürfen (1974) DVDRip | A Монах 1.37 GB
Разная литература Елизавета Хейнонен - 167 загадок для тех, кто хочет знать английский лучше (2015) PDF достали все 4 MB
Боевики, детективы, триллеры Знать или жить (Алман Боб) [2015, Детектив, аудиокнига, MP3, 96 kbps, Вячеслав Герасимов] Magnat 290 MB
Фильмы 2010 года Как знать... / How Do You Know? (Джеймс Л. Брукс / James L. Brooks) [2010, США, Драма, мелодрама, комедия, BDRip] Dub painkiller 1.46 GB
Научная и техническая литература Марина Дремова - 100 секретов работы на планшетах с Android, о которых должен знать каждый (2016) PDF достали все 11 MB
Фильмы (HD Rips | 720p, 1080p) Познать неизведанное / Approaching the Unknown (2016) WEB-DL 1080p | L достали все 3.48 GB
Показать сообщения:    

Текущее время: Сегодня 20:11

Часовой пояс: GMT



Вы не можете начинать темы
Вы не можете отвечать на сообщения
Вы не можете редактировать свои сообщения
Вы не можете удалять свои сообщения
Вы не можете голосовать в опросах
Вы не можете прикреплять файлы к сообщениям
Вы не можете скачивать файлы