Знак почёта / Badge of Honor (2015) WEB-DL 720p | P

 
Автор Сообщение

достали все ®

Пол:

Стаж: 1 год 8 месяцев

Сообщений: 6613



Награды: 12 (Подробнее)

Top Releaser 2 (Количество: 1) Mega Seeder 4 (Количество: 1) Mega Seeder 5 (Количество: 1)
Торрент-статистика

Создавать темы 24-Июн-2015 17:06

[Цитировать]

Информация о фильме
Название: Знак почёта
Оригинальное название: Badge of Honor
Год выпуска: 2015
Жанр: триллер, драма, криминал
Режиссер: Агустин
В ролях: Мартин Шин, Мена Сувари, Джесси Брэдфорд, Локлин Манро, Наташа Хенстридж, Хэйли Дафф, Патрик Малдун, Алекс Паунович, Трэвис Милн, Chelsea Baker
О фильме: Двое детективов из отдела по борьбе с наркотиками оказываются втянуты в бурное расследование возглавляемое детективом из министерства внутренних дел. Все начинается из-за того, что во время полицейской облавы застрелили ребенка…

Выпущено: США / Hollywood Media Bridge, Marlowe Media Ventures, Triton Films
Продолжительность: 01:38:11
Озвучивание: Профессиональное (многоголосое) [Официальный звук]
Файл
Формат: MKV
Качество: WEB-DL 720p
Видео: 3830 kb/s, 1280х718
Аудио: Russian: AC3, 192 kb/s (2 ch) / English: AC3, 384 kb/s (6 ch)

MI

Format : Matroska
Format version : Version 2
File size : 3.08 GiB
Duration : 1h 38mn
Overall bit rate : 4 496 Kbps
Encoded date : UTC 2015-06-24 11:37:19
Writing application : mkvmerge v4.0.0 ('The Stars were mine') сборка от Jun 6 2010 16:18:42
Writing library : libebml v1.0.0 + libmatroska v1.0.0
Video
ID : 1
Format : AVC
Format/Info : Advanced Video Codec
Format profile : High@L3.1
Format settings, CABAC : No
Format settings, ReFrames : 2 frames
Codec ID : V_MPEG4/ISO/AVC
Duration : 1h 38mn
Bit rate : 3 830 Kbps
Width : 1 280 pixels
Height : 718 pixels
Display aspect ratio : 16:9
Frame rate mode : Constant
Frame rate : 23.976 fps
Color space : YUV
Chroma subsampling : 4:2:0
Bit depth : 8 bits
Scan type : Progressive
Bits/(Pixel*Frame) : 0.174
Stream size : 2.63 GiB (85%)
Language : English
Default : No
Forced : No
Color range : Limited
Color primaries : BT.709
Transfer characteristics : BT.709
Matrix coefficients : BT.709
Audio #1
ID : 2
Format : AC-3
Format/Info : Audio Coding 3
Mode extension : CM (complete main)
Format settings, Endianness : Big
Codec ID : A_AC3
Duration : 1h 38mn
Bit rate mode : Constant
Bit rate : 192 Kbps
Channel(s) : 2 channels
Channel positions : Front: L R
Sampling rate : 48.0 KHz
Bit depth : 16 bits
Compression mode : Lossy
Stream size : 135 MiB (4%)
Language : Russian
Default : Yes
Forced : Yes
Audio #2
ID : 3
Format : AC-3
Format/Info : Audio Coding 3
Mode extension : CM (complete main)
Format settings, Endianness : Big
Codec ID : A_AC3
Duration : 1h 38mn
Bit rate mode : Constant
Bit rate : 384 Kbps
Channel(s) : 6 channels
Channel positions : Front: L C R, Side: L R, LFE
Sampling rate : 48.0 KHz
Bit depth : 16 bits
Compression mode : Lossy
Stream size : 270 MiB (9%)
Language : English
Default : No
Forced : No
Menu
00:00:00.000 : en:Chapter1
00:28:05.000 : en:Chapter2
01:03:10.000 : en:Chapter3
01:36:07.000 : en:Chapter4

Скриншоты

[Профиль] [ЛС]
Кто просматривает тему:

Показать сообщения:    

Текущее время: Сегодня 04:30

Часовой пояс: GMT



Вы не можете начинать темы
Вы не можете отвечать на сообщения
Вы не можете редактировать свои сообщения
Вы не можете удалять свои сообщения
Вы не можете голосовать в опросах
Вы не можете прикреплять файлы к сообщениям
Вы не можете скачивать файлы