Знакомые лица (Фаина Епифанова) [1966, СССР, Союзмультфильм, Мультфильм, SATRip]

 
Автор Сообщение

TorrentFilm ®

Пол:

Стаж: 2 года

Сообщений: 7741



Награды: Нет

Торрент-статистика

Создавать темы 19-Дек-2015 00:08

[Цитировать]

Знакомые лица
Страна: СССР, Союзмультфильм
Жанр: Мультфильм
Продолжительность: 00:09:04
Год выпуска: 1966
Перевод: Не требуется
Русские субтитры: нет
Режиссёр: Фаина Епифанова
Роли озвучивали: Алексей Консовский, Елена Понсова
Описание: Для взрослых. По мотивам басен Сергея Михалкова.

Я на:

Качество: DVB
Формат: MPEG-TS
Видео: MPEG Video, 4046 kbps, 704 x 576 (1.333), 25 fps
Аудио: MPEG Audio, 160 kbps, 2 ch, 48 kHz
Субтитры: Отсутствуют

Подробные технические данные

ОбщееИдентификатор : 1 (0x1)Полное имя : D:\00-Знакомые лица\Знакомые лица.tsФормат : MPEG-TSРазмер файла : 287 МбайтПродолжительность : 9 м. 4 с.Режим общего битрейта : ПеременныйОбщий поток : 4426 Кбит/сек
ВидеоИдентификатор : 1310 (0x51E)Идентификатор меню : 310 (0x136)Формат : MPEG VideoВерсия формата : Version 2Профиль формата : Main@MainПараметр BVOP формата : ДаПараметр матрицы формата : ВыборочнаяПараметр GOP формата : VariableСтруктура изображения : FrameИдентификатор кодека : 2Продолжительность : 9 м. 4 с.Вид битрейта : ПеременныйБитрейт : 4046 Кбит/секМаксимальный битрейт : 15,0 Мбит/секШирина : 704 пикселяВысота : 576 пикселейСоотношение сторон : 4:3Частота кадров : 25,000 кадров/секСтандарт вещания : PALЦветовое пространство : YUVСубдискретизация насыщенности : 4:2:0Битовая глубина : 8 битТип развёртки : ЧересстрочнаяПорядок развёртки : Верхнее поле первоеМетод сжатия : С потерямиБит/(Пиксели*Кадры) : 0.399Временной код первого кадра : 00:00:00:00Оригинал временного кода : Group of pictures headerGOP, открыто/закрыто : ОткрытоРазмер потока : 262 Мбайт (91%)
АудиоИдентификатор : 2310 (0x906)Идентификатор меню : 310 (0x136)Формат : MPEG AudioВерсия формата : Version 1Профиль формата : Layer 2Идентификатор кодека : 3Продолжительность : 9 м. 4 с.Вид битрейта : ПостоянныйБитрейт : 160 Кбит/секКаналы : 2 каналаЧастота : 48,0 КГцМетод сжатия : С потерямиЗадержка видео : 19 мс.Размер потока : 10,4 Мбайт (4%)Язык : Russian

Скриншоты

[Профиль] [ЛС]
Кто просматривает тему:

Форум Тема Автор Размер
BBC BBC: Истории о древней земле. Знакомьтесь с предками / Stories from the Dark Earth. Meet the Ancestors [серии 1-4 из 4] (Бен Кричтон, Вилл Ярсли, Марк Вильямс, Джорджина Лес... skorpionN 5.56 GB
Discovery Discovery. Знакомство с пришельцами / Aliens: Are We Alone? [2013, Документальный, SATRip] reversefile 445 MB
Фильмы 2014 года Давай знакомиться. Фильм / Hello Ladies: The Movie (Стивен Мерчант)[2014,Комедия] HDTVRip | P adeei 1.37 GB
Фильмы (HD Rips | 720p, 1080p) Знакомство с родителями и Знакомство с Факерами: Трилогия / Meet The Parents and Meet the Fockers: Trilogy (2000-2010) BDRip 1080p sergej644 34.3 GB
Отечественные мультфильмы Знакомые картинки (Евгений Мигунов) [1957, СССР, сатира, DVB] TorrentFilm 204 MB
Фильмы (HD Rips | 720p, 1080p) Знакомьтесь, семейка Блэков / Meet the Blacks (2016) BDRip 720p | L BOSS 4.03 GB
Фильмы 2016 года Знакомьтесь, семейка Блэков / Meet the Blacks (2016) BDRip | L2 ODESSA 1.23 GB
Фильмы 2016 года Знакомьтесь, семейка Блэков / Meet the Blacks (2016) BDRip-AVC | L2 достали все 1.45 GB
Показать сообщения:    

Текущее время: Сегодня 04:49

Часовой пояс: GMT



Вы не можете начинать темы
Вы не можете отвечать на сообщения
Вы не можете редактировать свои сообщения
Вы не можете удалять свои сообщения
Вы не можете голосовать в опросах
Вы не можете прикреплять файлы к сообщениям
Вы не можете скачивать файлы