Знакомство с родителями и Знакомство с Факерами: Трилогия / Meet The Parents and Meet the Fockers: Trilogy (2000-2010) BDRip 1080p

 
Автор Сообщение

sergej644 ®

Пол:

Стаж: 4 года 11 месяцев

Сообщений: 6045

Откуда: Soviet Union



Награды: Нет

Торрент-статистика

Создавать темы 04-Ноя-2014 17:44

[Цитировать]

--Знакомство с родителями / Meet the Parents (2000) BDRip 1080p
Информация о фильме
Название: Знакомство с родителями
Оригинальное название: Meet the Parents
Год выхода: 2000
Жанр: Мелодрама, комедия
Режиссер: Джей Роуч
В ролях: Бен Стиллер, Роберт Де Ниро, Тери Поло, Блайт Даннер, Николь ДеХафф, Джон Абрахамс, Оуэн Уилсон, Джеймс Ребхорн, Томас МакКарти, Филлис Джордж
О фильме:
Обладатель замечательной фамилии, санитар Грэг Трахер, отправляется за город, чтобы познакомиться с родителями своей девушки Пэм. Здесь Грэг собирается торжественно просить руки возлюбленной. Но, к несчастью, Грэг — парень невезучий, и любые благие начинания в его исполнении превращаются в сущий кошмар.
Несчастный Трахер и в самом страшном сне не предполагал, какие его ждут испытания. Дело в том, что отец Пэм, Джек Бернс, — отставной сотрудник ЦРУ, устраивает приятелям дочери свою особую и жесткую проверку. Эта проверка включает в себя даже специальный тест на детекторе лжи!

Страна: США
Студия: DreamWorks SKG, Nancy Tenenbaum Productions, Tribeca Productions, Universal Pictures
Продолжительность: 01:47:40
Перевод: Дублированный |Blu-ray CEE| + Профессиональный (двухголосый, закадровый) Премьер Видео Фильм + Профессиональный (многоголосый, закадровый) телеканал "ОРТ" + Авторский (одноголосый, закадровый) Юрий Живов + Оригинал
Файл
Кодек: x264
Качество: BDRip 1080p (источник: HDCLUB / Blu-ray Disc / 1080p)
Видео: 1920х1080 (16:9), 12793 Kbps, 23.976 fps, 0.257 bit/pixel
Аудио #1: 48.0 kHz, AC3 Dolby Digital, 3/2 (L,C,R,l,r) + LFE ch, 640 kbps [Дубляж, Blu-ray CEE]
Аудио #2: 48.0 kHz, AC3 Dolby Digital, 3/2 (L,C,R,l,r) + LFE ch, 448 kbps [Двухголосый, Премьер Видео Фильм]
Аудио #3: 48.0 kHz, AC3 Dolby Digital, 2/0 (L,R) ch, 192 kbps [Многоголосый, телеканал "ОРТ"]
Аудио #4: 48.0 kHz, AC3 Dolby Digital, 3/2 (L,C,R,l,r) + LFE ch, 640 kbps [Авторский, Ю. Живов]
Аудио #5: 48.0 kHz, AC3 Dolby Digital, 3/2 (L,C,R,l,r) + LFE ch, 640 kbps [Оригинал, Английский]
Субтитры: Русские [форсированные, полные], английские [полные, SDH]
Семпл

x264 / MediaInfo

x264 [info]: frame I:1427 Avg QP:15.54 size:257092
x264 [info]: frame P:31299 Avg QP:17.31 size:116215
x264 [info]: frame B:122151 Avg QP:19.15 size: 51764
General
Unique ID                                : 185572484073767441155804861795731237684 (0x8B9BF5DC5425ECAC947223495603EB34)
Complete name                            : E:Meet.The.Parents.and.Meet.the.Fockers.Trilogy.2000-2010.x264.BDRip.1080pMeet.the.Parents.2000.x264.BDRip.1080p.mkv
Format                                   : Matroska
Format version                           : Version 2
File size                                : 11.5 GiB
Duration                                 : 1h 47mn
Overall bit rate                         : 15.3 Mbps
Encoded date                             : UTC 2014-11-04 15:42:32
Writing application                      : mkvmerge v5.8.0 ('No Sleep / Pillow') built on Sep  2 2012 15:37:04
Writing library                          : libebml v1.2.3 + libmatroska v1.3.0
Video
ID                                       : 1
Format                                   : AVC
Format/Info                              : Advanced Video Codec
Format profile                           : High@L4.1
Format settings, CABAC                   : Yes
Format settings, ReFrames                : 4 frames
Codec ID                                 : V_MPEG4/ISO/AVC
Duration                                 : 1h 47mn
Bit rate                                 : 12.8 Mbps
Width                                    : 1 920 pixels
Height                                   : 1 080 pixels
Display aspect ratio                     : 16:9
Frame rate mode                          : Constant
Frame rate                               : 23.976 fps
Color space                              : YUV
Chroma subsampling                       : 4:2:0
Bit depth                                : 8 bits
Scan type                                : Progressive
Bits/(Pixel*Frame)                       : 0.257
Stream size                              : 9.39 GiB (81%)
Writing library                          : x264 core 142 r2479 dd79a61
Encoding settings                        : cabac=1 / ref=4 / deblock=1:-3:-3 / analyse=0x3:0x133 / me=tesa / subme=11 / psy=1 / psy_rd=1.06:0.00 / mixed_ref=1 / me_range=32 / chroma_me=1 / trellis=2 / 8x8dct=1 / cqm=0 / deadzone=21,11 / fast_pskip=0 / chroma_qp_offset=-2 / threads=12 / lookahead_threads=2 / sliced_threads=0 / nr=0 / decimate=0 / interlaced=0 / bluray_compat=0 / constrained_intra=0 / bframes=8 / b_pyramid=2 / b_adapt=2 / b_bias=0 / direct=3 / weightb=1 / open_gop=0 / weightp=2 / keyint=240 / keyint_min=23 / scenecut=40 / intra_refresh=0 / rc=2pass / mbtree=0 / bitrate=12793 / ratetol=1.0 / qcomp=0.60 / qpmin=0 / qpmax=69 / qpstep=4 / cplxblur=20.0 / qblur=0.5 / ip_ratio=1.40 / pb_ratio=1.30 / aq=1:1.00
Language                                 : English
Default                                  : Yes
Forced                                   : No
Audio #1
ID                                       : 2
Format                                   : AC-3
Format/Info                              : Audio Coding 3
Mode extension                           : CM (complete main)
Format settings, Endianness              : Big
Codec ID                                 : A_AC3
Duration                                 : 1h 47mn
Bit rate mode                            : Constant
Bit rate                                 : 640 Kbps
Channel(s)                               : 6 channels
Channel positions                        : Front: L C R, Side: L R, LFE
Sampling rate                            : 48.0 KHz
Bit depth                                : 16 bits
Compression mode                         : Lossy
Stream size                              : 493 MiB (4%)
Title                                    : Дубляж, Blu-ray CEE
Language                                 : Russian
Default                                  : Yes
Forced                                   : No
Audio #2
ID                                       : 3
Format                                   : AC-3
Format/Info                              : Audio Coding 3
Mode extension                           : CM (complete main)
Format settings, Endianness              : Big
Codec ID                                 : A_AC3
Duration                                 : 1h 47mn
Bit rate mode                            : Constant
Bit rate                                 : 448 Kbps
Channel(s)                               : 6 channels
Channel positions                        : Front: L C R, Side: L R, LFE
Sampling rate                            : 48.0 KHz
Bit depth                                : 16 bits
Compression mode                         : Lossy
Stream size                              : 345 MiB (3%)
Title                                    : Двухголосый, Премьер Видео Фильм
Language                                 : Russian
Default                                  : No
Forced                                   : No
Audio #3
ID                                       : 4
Format                                   : AC-3
Format/Info                              : Audio Coding 3
Mode extension                           : CM (complete main)
Format settings, Endianness              : Big
Codec ID                                 : A_AC3
Duration                                 : 1h 47mn
Bit rate mode                            : Constant
Bit rate                                 : 192 Kbps
Channel(s)                               : 2 channels
Channel positions                        : Front: L R
Sampling rate                            : 48.0 KHz
Bit depth                                : 16 bits
Compression mode                         : Lossy
Stream size                              : 148 MiB (1%)
Title                                    : Многоголосый, телеканал "ОРТ"
Language                                 : Russian
Default                                  : No
Forced                                   : No
Audio #4
ID                                       : 5
Format                                   : AC-3
Format/Info                              : Audio Coding 3
Mode extension                           : CM (complete main)
Format settings, Endianness              : Big
Codec ID                                 : A_AC3
Duration                                 : 1h 47mn
Bit rate mode                            : Constant
Bit rate                                 : 640 Kbps
Channel(s)                               : 6 channels
Channel positions                        : Front: L C R, Side: L R, LFE
Sampling rate                            : 48.0 KHz
Bit depth                                : 16 bits
Compression mode                         : Lossy
Stream size                              : 493 MiB (4%)
Title                                    : Авторский, Ю. Живов
Language                                 : Russian
Default                                  : No
Forced                                   : No
Audio #5
ID                                       : 6
Format                                   : AC-3
Format/Info                              : Audio Coding 3
Mode extension                           : CM (complete main)
Format settings, Endianness              : Big
Codec ID                                 : A_AC3
Duration                                 : 1h 47mn
Bit rate mode                            : Constant
Bit rate                                 : 640 Kbps
Channel(s)                               : 6 channels
Channel positions                        : Front: L C R, Side: L R, LFE
Sampling rate                            : 48.0 KHz
Bit depth                                : 16 bits
Compression mode                         : Lossy
Stream size                              : 493 MiB (4%)
Title                                    : Оригинал, Английский
Language                                 : English
Default                                  : No
Forced                                   : No
Text #1
ID                                       : 7
Format                                   : UTF-8
Codec ID                                 : S_TEXT/UTF8
Codec ID/Info                            : UTF-8 Plain Text
Title                                    : Русские [форсированные]
Language                                 : Russian
Default                                  : Yes
Forced                                   : No
Text #2
ID                                       : 8
Format                                   : UTF-8
Codec ID                                 : S_TEXT/UTF8
Codec ID/Info                            : UTF-8 Plain Text
Title                                    : Русские [полные]
Language                                 : Russian
Default                                  : No
Forced                                   : No
Text #3
ID                                       : 9
Format                                   : UTF-8
Codec ID                                 : S_TEXT/UTF8
Codec ID/Info                            : UTF-8 Plain Text
Title                                    : Английские [полные]
Language                                 : English
Default                                  : No
Forced                                   : No
Text #4
ID                                       : 10
Format                                   : UTF-8
Codec ID                                 : S_TEXT/UTF8
Codec ID/Info                            : UTF-8 Plain Text
Title                                    : английские [SDH]
Language                                 : English
Default                                  : No
Forced                                   : No
Menu
00:00:00.000                             : en:01. A Fool In Love (Main Titles)
00:04:25.182                             : en:02. Proposal Problems
00:08:05.527                             : en:03. Daddy and Mommy
00:17:42.478                             : en:04. The Drug Store Trip
00:23:59.063                             : en:05. Dinner With the Folks
00:31:52.369                             : en:06. Sleeping Arrangements
00:37:09.269                             : en:07. To Tell the Truth
00:40:50.114                             : en:08. Dad's Little Secret
00:44:15.444                             : en:09. The Grand Inquisition
00:49:46.901                             : en:10. Greg's Drug Problem
00:52:01.869                             : en:11. Kevin
00:59:06.585                             : en:12. Greg's Afraid of the Ball
01:03:06.324                             : en:13. Wedding Smells
01:06:37.410                             : en:14. Jinxed
01:11:54.352                             : en:15. The Counterfeit Cat
01:28:32.641                             : en:16. Good Enough For Pam
01:33:34.609                             : en:17. Bomb's the Word
01:35:57.627                             : en:18. No More Lies
01:38:49.632                             : en:19. A Little Circle of Trust
01:43:51.016                             : en:20. End Titles

Знакомство с Факерами / Meet the Fockers (2004) BDRip 1080p

Знакомство с Факерами / Meet the Fockers (2004) BDRip 1080p
Информация о фильме
Название: Знакомство с Факерами
Оригинальное название: Meet the Fockers
Год выхода: 2004
Жанр: Мелодрама, комедия
Режиссер: Джей Роуч
В ролях: Роберт Де Ниро, Бен Стиллер, Дастин Хоффман, Барбра Стрейзанд, Блайт Даннер, Тери Поло, Аланна Юбак, Рэй Сантьяго, Шелли Берман, Оуэн Уилсон
О фильме:
Дав разрешение санитару Грэгу Факеру на свадьбу с их дочерью, бывший ЦэРэУшник Джек Бернс и его жена отправляются в Майами к родителям жениха. У них в голове много вопросов. Что это за семейка такая — Факеры? И что это вообще за родители, которые назвали сына Гей (Гейлард) М. Факер?

Страна: США
Студия: DreamWorks SKG, Everyman Pictures, Tribeca Productions, Universal Pictures
Продолжительность: 01:55:17
Перевод: Дублированный |Blu-ray CEE| + Профессиональный (двухголосый, закадровый) Tycoon Studio + Профессиональный (двухголосый, закадровый) Премьер Видео Фильм + Авторский (одноголосый, закадровый) Владимир Королёв + Оригинал
Файл
Кодек: x264
Качество: BDRip 1080p (источник: HDCLUB / Blu-ray Disc / 1080p)
Видео: 1920х1080 (16:9), 16135 Kbps, 23.976 fps, 0.325 bit/pixel
Аудио #1: 48.0 kHz, AC3 Dolby Digital, 3/2 (L,C,R,l,r) + LFE ch, 640 kbps [Дубляж, Blu-ray CEE]
Аудио #2: 48.0 kHz, AC3 Dolby Digital, 3/2 (L,C,R,l,r) + LFE ch, 448 kbps [Двухголосый, Tycoon Studio]
Аудио #3: 48.0 kHz, MP3, 2/0 (L,R) ch, 128 kbps [Двухголосый, Премьер Видео Фильм]
Аудио #4: 48.0 kHz, AC3 Dolby Digital, 3/2 (L,C,R,l,r) + LFE ch, 640 kbps [Авторский, В. Королёв]
Аудио #5: 48.0 kHz, AC3 Dolby Digital, 3/2 (L,C,R,l,r) + LFE ch, 640 kbps [Оригинал, Английский]
Субтитры: Русские [форсированные, полные], английские [SDH]
Семпл

x264 / MediaInfo

x264 [info]: frame I:1690 Avg QP:21.31 size:245744
x264 [info]: frame P:31371 Avg QP:23.08 size:126666
x264 [info]: frame B:132784 Avg QP:25.31 size: 71931
General
Unique ID                                : 250845036792822783996754304503858767924 (0xBCB6FF2CB69DEA459A303122076AA834)
Complete name                            : E:Meet.The.Parents.and.Meet.the.Fockers.Trilogy.2000-2010.x264.BDRip.1080pMeet.the.Fockers.2004.x264.BDRip.1080p.mkv
Format                                   : Matroska
Format version                           : Version 2
File size                                : 15.0 GiB
Duration                                 : 1h 55mn
Overall bit rate                         : 18.6 Mbps
Encoded date                             : UTC 2014-11-01 21:47:11
Writing application                      : mkvmerge v5.8.0 ('No Sleep / Pillow') built on Sep  2 2012 15:37:04
Writing library                          : libebml v1.2.3 + libmatroska v1.3.0
Video
ID                                       : 1
Format                                   : AVC
Format/Info                              : Advanced Video Codec
Format profile                           : High@L4.1
Format settings, CABAC                   : Yes
Format settings, ReFrames                : 4 frames
Codec ID                                 : V_MPEG4/ISO/AVC
Duration                                 : 1h 55mn
Bit rate                                 : 16.1 Mbps
Width                                    : 1 920 pixels
Height                                   : 1 080 pixels
Display aspect ratio                     : 16:9
Frame rate mode                          : Constant
Frame rate                               : 23.976 fps
Color space                              : YUV
Chroma subsampling                       : 4:2:0
Bit depth                                : 8 bits
Scan type                                : Progressive
Bits/(Pixel*Frame)                       : 0.325
Stream size                              : 12.7 GiB (85%)
Writing library                          : x264 core 142 r2479 dd79a61
Encoding settings                        : cabac=1 / ref=4 / deblock=1:0:0 / analyse=0x3:0x133 / me=tesa / subme=11 / psy=1 / psy_rd=1.00:0.00 / mixed_ref=1 / me_range=32 / chroma_me=1 / trellis=2 / 8x8dct=1 / cqm=0 / deadzone=21,11 / fast_pskip=0 / chroma_qp_offset=-2 / threads=12 / lookahead_threads=3 / sliced_threads=0 / nr=0 / decimate=0 / interlaced=0 / bluray_compat=0 / constrained_intra=0 / bframes=10 / b_pyramid=2 / b_adapt=2 / b_bias=0 / direct=3 / weightb=1 / open_gop=0 / weightp=2 / keyint=240 / keyint_min=23 / scenecut=40 / intra_refresh=0 / rc=2pass / mbtree=0 / bitrate=16135 / ratetol=1.0 / qcomp=0.60 / qpmin=0 / qpmax=69 / qpstep=4 / cplxblur=20.0 / qblur=0.5 / ip_ratio=1.40 / pb_ratio=1.30 / aq=1:1.00
Language                                 : English
Default                                  : Yes
Forced                                   : No
Audio #1
ID                                       : 2
Format                                   : AC-3
Format/Info                              : Audio Coding 3
Mode extension                           : CM (complete main)
Format settings, Endianness              : Big
Codec ID                                 : A_AC3
Duration                                 : 1h 55mn
Bit rate mode                            : Constant
Bit rate                                 : 640 Kbps
Channel(s)                               : 6 channels
Channel positions                        : Front: L C R, Side: L R, LFE
Sampling rate                            : 48.0 KHz
Bit depth                                : 16 bits
Compression mode                         : Lossy
Stream size                              : 528 MiB (3%)
Title                                    : Дубляж, Blu-ray CEE
Language                                 : Russian
Default                                  : Yes
Forced                                   : No
Audio #2
ID                                       : 3
Format                                   : AC-3
Format/Info                              : Audio Coding 3
Mode extension                           : CM (complete main)
Format settings, Endianness              : Big
Codec ID                                 : A_AC3
Duration                                 : 1h 55mn
Bit rate mode                            : Constant
Bit rate                                 : 448 Kbps
Channel(s)                               : 6 channels
Channel positions                        : Front: L C R, Side: L R, LFE
Sampling rate                            : 48.0 KHz
Bit depth                                : 16 bits
Compression mode                         : Lossy
Stream size                              : 369 MiB (2%)
Title                                    : Двухголосый, Tycoon Studio
Language                                 : Russian
Default                                  : No
Forced                                   : No
Audio #3
ID                                       : 4
Format                                   : MPEG Audio
Format version                           : Version 1
Format profile                           : Layer 3
Mode                                     : Joint stereo
Mode extension                           : MS Stereo
Codec ID                                 : A_MPEG/L3
Codec ID/Hint                            : MP3
Duration                                 : 1h 55mn
Bit rate mode                            : Constant
Bit rate                                 : 128 Kbps
Channel(s)                               : 2 channels
Sampling rate                            : 48.0 KHz
Compression mode                         : Lossy
Delay relative to video                  : 500ms
Stream size                              : 106 MiB (1%)
Title                                    : Двухголосый, Премьер Видео Фильм
Language                                 : Russian
Default                                  : No
Forced                                   : No
Audio #4
ID                                       : 5
Format                                   : AC-3
Format/Info                              : Audio Coding 3
Mode extension                           : CM (complete main)
Format settings, Endianness              : Big
Codec ID                                 : A_AC3
Duration                                 : 1h 55mn
Bit rate mode                            : Constant
Bit rate                                 : 640 Kbps
Channel(s)                               : 6 channels
Channel positions                        : Front: L C R, Side: L R, LFE
Sampling rate                            : 48.0 KHz
Bit depth                                : 16 bits
Compression mode                         : Lossy
Stream size                              : 528 MiB (3%)
Title                                    : Авторский, В. Королёв
Language                                 : Russian
Default                                  : No
Forced                                   : No
Audio #5
ID                                       : 6
Format                                   : AC-3
Format/Info                              : Audio Coding 3
Mode extension                           : CM (complete main)
Format settings, Endianness              : Big
Codec ID                                 : A_AC3
Duration                                 : 1h 55mn
Bit rate mode                            : Constant
Bit rate                                 : 640 Kbps
Channel(s)                               : 6 channels
Channel positions                        : Front: L C R, Side: L R, LFE
Sampling rate                            : 48.0 KHz
Bit depth                                : 16 bits
Compression mode                         : Lossy
Stream size                              : 528 MiB (3%)
Title                                    : Оригинал, Английский
Language                                 : English
Default                                  : No
Forced                                   : No
Text #1
ID                                       : 7
Format                                   : UTF-8
Codec ID                                 : S_TEXT/UTF8
Codec ID/Info                            : UTF-8 Plain Text
Title                                    : Русские [форсированные]
Language                                 : Russian
Default                                  : Yes
Forced                                   : No
Text #2
ID                                       : 8
Format                                   : UTF-8
Codec ID                                 : S_TEXT/UTF8
Codec ID/Info                            : UTF-8 Plain Text
Title                                    : Русские [полные]
Language                                 : Russian
Default                                  : No
Forced                                   : No
Text #3
ID                                       : 9
Format                                   : UTF-8
Codec ID                                 : S_TEXT/UTF8
Codec ID/Info                            : UTF-8 Plain Text
Title                                    : Английские [SDH]
Language                                 : English
Default                                  : No
Forced                                   : No
Menu
00:00:00.000                             : en:Gonna Get Married (Main Titles)
00:06:10.119                             : en:Setting Sail
00:14:37.668                             : en:The Manary Gland
00:20:13.211                             : en:Welcome to Miami
00:26:22.997                             : en:The Wall of Gaylord
00:31:20.794                             : en:A Little Secret
00:35:50.522                             : en:Cat and Dog
00:38:21.798                             : en:Personal Memories
00:46:46.426                             : en:Family Matters
00:51:25.872                             : en:Blood Sport
00:57:54.260                             : en:Feberized
01:03:58.707                             : en:"You Look Like Someone I Know"
01:11:30.491                             : en:Bodywork
01:16:01.512                             : en:The Mobil Command Center
01:20:24.441                             : en:A Lot in Command
01:24:46.995                             : en:Tell the Truth
01:30:23.747                             : en:Must Leave Evil Island
01:35:53.827                             : en:Remain Calm
01:44:45.483                             : en:A Spiritual Connection
01:50:17.147                             : en:Spy Cam (End Titles)

Знакомство с Факерами 2 / Little Fockers (2010) BDRip 1080p

Знакомство с Факерами 2 / Little Fockers (2010) BDRip 1080p
Информация о фильме
Название: Знакомство с Факерами 2
Оригинальное название: Little Fockers
Год выхода: 2010
Жанр: Комедия
Режиссер: Пол Вайц
В ролях: Роберт Де Ниро, Бен Стиллер, Оуэн Уилсон, Тери Поло, Блайт Даннер, Джессика Альба, Дастин Хоффман, Барбра Стрейзанд, Лора Дерн, Харви Кейтель
О фильме:
10 лет, двое детей и бесчисленные испытания понадобились Грегу для того, чтобы тесть частично примирился с его существованием. Но после того как Грег, оказавшись на мели, находит себе халтуру в фармацевтической компании, подозрения Джека увеличиваются в геометрической прогрессии.
Когда все семейство Грега и Пэм, включая ее бывшего возлюбленного Кевина, соберутся на день рождения близнецов, Грегу придется доказать скептично настроенному Джеку, что он настоящий хозяин в доме. Недоразумения, слежка, миссии под прикрытием — как все это поможет Грегу пройти последнее испытание и стать новым главой семьи? Или возникшее между родственниками доверие будет подорвано… к лучшему?

Страна: США
Студия: DW Studios, Everyman Pictures, Paramount Pictures, Relativity Media, Tribeca Productions, Universal Pictures
Продолжительность: 01:37:41
Перевод: Дублированный |Blu-ray CEE| + Оригинал
Файл
Кодек: x264
Качество: BDRip 1080p (источник: Blu-ray Remux / 1080p / US-Transfer)
Видео: 1920х1040 (1.85:1), 10096 Kbps, 23.976 fps, 0.211 bit/pixel
Аудио #1: 48.0 kHz, AC3 Dolby Digital, 3/2 (L,C,R,l,r) + LFE ch, 640 kbps [Дубляж, Blu-ray CEE]
Аудио #2: 48.0 kHz, AC3 Dolby Digital, 3/2 (L,C,R,l,r) + LFE ch, 640 kbps [Оригинал, Английский]
Субтитры: Русские, английские
Семпл

x264 / MediaInfo

x264 [info]: frame I:1318 Avg QP:17.89 size:237061
x264 [info]: frame P:27286 Avg QP:20.88 size: 97771
x264 [info]: frame B:111915 Avg QP:22.88 size: 39445
General
Unique ID                                : 213122160933795287245773982254501070428 (0xA055D5CCC011BAF5B12598EEC912065C)
Complete name                            : E:Meet.The.Parents.and.Meet.the.Fockers.Trilogy.2000-2010.x264.BDRip.1080pLittle.Fockers.2010.x264.BDRip.1080p.mkv
Format                                   : Matroska
Format version                           : Version 2
File size                                : 7.76 GiB
Duration                                 : 1h 37mn
Overall bit rate                         : 11.4 Mbps
Encoded date                             : UTC 2014-11-01 22:10:30
Writing application                      : mkvmerge v5.8.0 ('No Sleep / Pillow') built on Sep  2 2012 15:37:04
Writing library                          : libebml v1.2.3 + libmatroska v1.3.0
Video
ID                                       : 1
Format                                   : AVC
Format/Info                              : Advanced Video Codec
Format profile                           : High@L4.1
Format settings, CABAC                   : Yes
Format settings, ReFrames                : 4 frames
Codec ID                                 : V_MPEG4/ISO/AVC
Duration                                 : 1h 37mn
Bit rate                                 : 10.1 Mbps
Width                                    : 1 920 pixels
Height                                   : 1 040 pixels
Display aspect ratio                     : 1.85:1
Frame rate mode                          : Constant
Frame rate                               : 23.976 fps
Color space                              : YUV
Chroma subsampling                       : 4:2:0
Bit depth                                : 8 bits
Scan type                                : Progressive
Bits/(Pixel*Frame)                       : 0.211
Stream size                              : 6.73 GiB (87%)
Title                                    : US-Transfer
Writing library                          : x264 core 142 r2479 dd79a61
Encoding settings                        : cabac=1 / ref=4 / deblock=1:-2:-2 / analyse=0x3:0x133 / me=tesa / subme=11 / psy=1 / psy_rd=1.00:0.00 / mixed_ref=1 / me_range=32 / chroma_me=1 / trellis=2 / 8x8dct=1 / cqm=0 / deadzone=21,11 / fast_pskip=0 / chroma_qp_offset=-2 / threads=12 / lookahead_threads=3 / sliced_threads=0 / nr=0 / decimate=0 / interlaced=0 / bluray_compat=0 / constrained_intra=0 / bframes=10 / b_pyramid=2 / b_adapt=2 / b_bias=0 / direct=3 / weightb=1 / open_gop=0 / weightp=2 / keyint=240 / keyint_min=23 / scenecut=40 / intra_refresh=0 / rc=2pass / mbtree=0 / bitrate=10096 / ratetol=1.0 / qcomp=0.60 / qpmin=0 / qpmax=69 / qpstep=4 / cplxblur=20.0 / qblur=0.5 / ip_ratio=1.40 / pb_ratio=1.30 / aq=1:1.00
Language                                 : English
Default                                  : Yes
Forced                                   : No
Audio #1
ID                                       : 2
Format                                   : AC-3
Format/Info                              : Audio Coding 3
Mode extension                           : CM (complete main)
Format settings, Endianness              : Big
Codec ID                                 : A_AC3
Duration                                 : 1h 37mn
Bit rate mode                            : Constant
Bit rate                                 : 640 Kbps
Channel(s)                               : 6 channels
Channel positions                        : Front: L C R, Side: L R, LFE
Sampling rate                            : 48.0 KHz
Bit depth                                : 16 bits
Compression mode                         : Lossy
Stream size                              : 448 MiB (6%)
Title                                    : Дубляж, Blu-ray CEE
Language                                 : Russian
Default                                  : Yes
Forced                                   : No
Audio #2
ID                                       : 3
Format                                   : AC-3
Format/Info                              : Audio Coding 3
Mode extension                           : CM (complete main)
Format settings, Endianness              : Big
Codec ID                                 : A_AC3
Duration                                 : 1h 37mn
Bit rate mode                            : Constant
Bit rate                                 : 640 Kbps
Channel(s)                               : 6 channels
Channel positions                        : Front: L C R, Side: L R, LFE
Sampling rate                            : 48.0 KHz
Bit depth                                : 16 bits
Compression mode                         : Lossy
Stream size                              : 448 MiB (6%)
Title                                    : Оригинал, Английский
Language                                 : English
Default                                  : No
Forced                                   : No
Text #1
ID                                       : 4
Format                                   : UTF-8
Codec ID                                 : S_TEXT/UTF8
Codec ID/Info                            : UTF-8 Plain Text
Language                                 : Russian
Default                                  : No
Forced                                   : No
Text #2
ID                                       : 5
Format                                   : UTF-8
Codec ID                                 : S_TEXT/UTF8
Codec ID/Info                            : UTF-8 Plain Text
Language                                 : English
Default                                  : No
Forced                                   : No
Menu
00:00:00.000                             : en:00:00:00.000
00:03:01.890                             : en:00:03:01.890
00:08:44.357                             : en:00:08:44.357
00:12:10.730                             : en:00:12:10.730
00:15:10.743                             : en:00:15:10.743
00:20:25.015                             : en:00:20:25.015
00:28:39.384                             : en:00:28:39.384
00:33:49.569                             : en:00:33:49.569
00:37:36.004                             : en:00:37:36.004
00:40:14.912                             : en:00:40:14.912
00:44:56.485                             : en:00:44:56.485
00:49:32.052                             : en:00:49:32.052
00:54:41.487                             : en:00:54:41.487
00:58:28.463                             : en:00:58:28.463
01:02:20.195                             : en:01:02:20.195
01:08:38.448                             : en:01:08:38.448
01:13:47.882                             : en:01:13:47.882
01:20:45.466                             : en:01:20:45.466
01:26:55.252                             : en:01:26:55.252
01:31:30.443                             : en:01:31:30.443
00:00:17.865                             : en:00:00:17.865
--
[Профиль] [ЛС]
Кто просматривает тему:

Форум Тема Автор Размер
BBC BBC: Истории о древней земле. Знакомьтесь с предками / Stories from the Dark Earth. Meet the Ancestors [серии 1-4 из 4] (Бен Кричтон, Вилл Ярсли, Марк Вильямс, Джорджина Лес... skorpionN 5.56 GB
Discovery Discovery. Знакомство с пришельцами / Aliens: Are We Alone? [2013, Документальный, SATRip] reversefile 445 MB
Фильмы 2014 года Давай знакомиться. Фильм / Hello Ladies: The Movie (Стивен Мерчант)[2014,Комедия] HDTVRip | P adeei 1.37 GB
Отечественные мультфильмы Знакомые картинки (Евгений Мигунов) [1957, СССР, сатира, DVB] TorrentFilm 204 MB
Отечественные мультфильмы Знакомые лица (Фаина Епифанова) [1966, СССР, Союзмультфильм, Мультфильм, SATRip] TorrentFilm 287 MB
Фильмы (HD Rips | 720p, 1080p) Знакомьтесь, семейка Блэков / Meet the Blacks (2016) BDRip 720p | L BOSS 4.03 GB
Фильмы 2016 года Знакомьтесь, семейка Блэков / Meet the Blacks (2016) BDRip | L2 ODESSA 1.23 GB
Фильмы 2016 года Знакомьтесь, семейка Блэков / Meet the Blacks (2016) BDRip-AVC | L2 достали все 1.45 GB
Показать сообщения:    

Текущее время: Сегодня 08:04

Часовой пояс: GMT



Вы не можете начинать темы
Вы не можете отвечать на сообщения
Вы не можете редактировать свои сообщения
Вы не можете удалять свои сообщения
Вы не можете голосовать в опросах
Вы не можете прикреплять файлы к сообщениям
Вы не можете скачивать файлы