Знает только Бог / By the Gun (Джеймс Моттерн / James Mottern) [2014, США, триллер, драма, криминал, HDRip] VO

 
Автор Сообщение

TorrentFilm ®

Пол:

Стаж: 2 года

Сообщений: 7741



Награды: Нет

Торрент-статистика

Создавать темы 06-Янв-2015 00:00

[Цитировать]

Знает только Бог / By the Gun Страна: США
Жанр: триллер, драма, криминал
Год выпуска: 2014
Продолжительность: 01:50:00
Перевод: Одноголосый закадровый
Cубтитры: нет
Оригинальная аудиодорожка: нет
Режиссер: Джеймс Моттерн / James Mottern
В ролях: Бен Барнс, Лейтон Мистер, Слэйн, Тоби Джонс, Харви Кейтель, Талли Банта-Кэйн, Пол Бен-Виктор, Уильям Блумфилд, Бонни Белль Скиннер, Билли Конча
Описание: Ник - молодой итальянец, проживающий в Бостоне. Он решил попасть в мафию, чтобы защитить свою семью и друзей, но он не представлял, что однажды ему понадобится выбраться оттуда, а сделать это будет не так просто...
СЭМПЛ
Качество видео: HDRip
Формат видео: AVI
Видео: 688x288 (2.39:1), 23.976 fps, XviD build 73 ~809 kbps avg, 0.17 bit/pixel
Аудио: 48 kHz, MPEG Layer 3, 2 ch, ~128.00 kbps avg

MediaInfo

Format : AVI
Format/Info : Audio Video Interleave
File size : 745 MiB
Duration : 1h 49mn
Overall bit rate : 947 Kbps
Writing application : VirtualDubMod 1.5.10.3 | www.virtualdub-fr.org || (build 2550/release)
Writing library : VirtualDubMod build 2550/release
Video
ID : 0
Format : MPEG-4 Visual
Format profile : Advanced Simple@L5
Format settings, BVOP : 1
Format settings, QPel : No
Format settings, GMC : No warppoints
Format settings, Matrix : Custom
Codec ID : XVID
Codec ID/Hint : XviD
Duration : 1h 49mn
Bit rate : 810 Kbps
Width : 688 pixels
Height : 288 pixels
Display aspect ratio : 2.40:1
Frame rate : 23.976 fps
Color space : YUV
Chroma subsampling : 4:2:0
Bit depth : 8 bits
Scan type : Progressive
Compression mode : Lossy
Bits/(Pixel*Frame) : 0.170
Stream size : 637 MiB (86%)
Writing library : XviD 73
Audio
ID : 1
Format : MPEG Audio
Format version : Version 1
Format profile : Layer 3
Codec ID : 55
Codec ID/Hint : MP3
Duration : 1h 49mn
Bit rate mode : Constant
Bit rate : 128 Kbps
Channel(s) : 2 channels
Sampling rate : 48.0 KHz
Compression mode : Lossy
Stream size : 101 MiB (14%)
Alignment : Aligned on interleaves
Interleave, duration : 42 ms (1.00 video frame)
Interleave, preload duration : 504 ms
Writing library : LAME3.99r
Encoding settings : -m s -V 4 -q 2 -lowpass 17 -b 128

Скриншот c названием фильма

Скриншоты

[Профиль] [ЛС]
Кто просматривает тему:

Форум Тема Автор Размер
Программы [Читалки] ВикиФакты - Знаете ли вы? [Android 2.3, RUS + ENG] TorrentFilm 2 MB
Отечественные мультсериалы Алиса знает, что делать! [s01] (2012-2015) Web-DL 1080p от -merci- достали все 22.78 GB
Фильмы (HD DVD, Blu-ray и BDRemux) Бог знает, мистер Аллисон / Heaven Knows, Mr. Allison (1957) BDRemux [1080p] Guest 28.39 GB
Фильмы 2014 года Знает только Бог / By the Gun (Джеймс Моттерн / James Mottern) [2014, США,триллер, драма, криминал, WEB-DLRip] VO TorrentFilm 1.46 GB
Фильмы 2009 года Знаете ли вы меня / Do You Know Me (Пенелопа Байтенхайс / Penelope Buitenhuis) [2009, Канада, США, триллер, криминал, детектив, HDTVRip] MVO TorrentFilm 1.37 GB
Фильмы 2009 года Никто не знает о персидских котах / Kasi az gorbehaye irani khabar nadareh / No One Knows About Persian Cats (Бахман Гобади / Bahman Ghobadi) [2009, Иран, Драма, Музыкальный, DVDRip] Sub Rus TorrentFilm 1.22 GB
Фильмы (DVD 5/9) Никто не знает про секс (Алексей Гордеев) [2006, Россия, комедия, DVD9 ] + Original Rus reversefile 5.13 GB
Фильмы 2009 года Страсть не знает преград / Alle Anderen (Марен Эд / Maren Ade) [2009, Германия, драма, мелодрама, DVDRip] DVO (Селена Интернешнл) + Original (Ger) painkiller 1.47 GB
Показать сообщения:    

Текущее время: Сегодня 22:02

Часовой пояс: GMT



Вы не можете начинать темы
Вы не можете отвечать на сообщения
Вы не можете редактировать свои сообщения
Вы не можете удалять свои сообщения
Вы не можете голосовать в опросах
Вы не можете прикреплять файлы к сообщениям
Вы не можете скачивать файлы