Знает только Бог / By the Gun (Джеймс Моттерн / James Mottern) [2014, США,триллер, драма, криминал, WEB-DLRip] VO

 
Автор Сообщение

TorrentFilm ®

Пол:

Стаж: 2 года

Сообщений: 7741



Награды: Нет

Торрент-статистика

Создавать темы 26-Дек-2014 02:00

[Цитировать]

Знает только Бог / By the Gun
Страна: США
Жанр: триллер, драма, криминал
Год выпуска: 2014
Продолжительность: 01:49:59
Перевод: Одноголосый (закадровый) [RAIM] по переводу [Сергея Гиллана]
Оригинальная аудиодорожка:нет
Cубтитры: нет
Режиссер: Джеймс Моттерн / James Mottern
В ролях: Бен Барнс, Харви Кейтель, Лейтон Мистер, Слэйн, Тоби Джонс, Талли Банта-Кэйн, Пол Бен-Виктор, Уильям Блумфилд, Бонни Белль Скиннер, Билли Конча
Описание: Ник — молодой итальянец, проживающий в Бостоне. Он решил попасть в мафию, чтобы защитить свою семью и друзей, но он не представлял, что однажды ему понадобится выбраться оттуда, а сделать это будет не так просто…

Сэмпл
Качество: WEB-DLRip
Контейнер: AVI
Видео: 720x304 (2.37:1), 23.976 fps, XviD build 73 ~1507 kbps avg, 0.29 bit/pixel
Аудио: 48 kHz, AC3 Dolby Digital, 3/2 (L,C,R,l,r) + LFE ch, ~384 kbps

MI

General
Complete name : C:\Users\Вячеслав\Downloads\By.the.Gun.2014.L1.WEB-DLRip.1.46.GB.avi
Format : AVI
Format/Info : Audio Video Interleave
File size : 1.46 GiB
Duration : 1h 49mn
Overall bit rate : 1 901 Kbps
Writing application : VirtualDubMod 1.5.10.3 | www.virtualdub-fr.org || (build 2550/release)
Writing library : VirtualDubMod build 2550/release
Video
ID : 0
Format : MPEG-4 Visual
Format profile : Advanced Simple@L5
Format settings, BVOP : 1
Format settings, QPel : No
Format settings, GMC : No warppoints
Format settings, Matrix : Custom
Codec ID : XVID
Codec ID/Hint : XviD
Duration : 1h 49mn
Bit rate : 1 508 Kbps
Width : 720 pixels
Height : 304 pixels
Display aspect ratio : 2.35:1
Frame rate : 23.976 fps
Color space : YUV
Chroma subsampling : 4:2:0
Bit depth : 8 bits
Scan type : Progressive
Compression mode : Lossy
Bits/(Pixel*Frame) : 0.287
Stream size : 1.16 GiB (79%)
Writing library : XviD 73
Audio
ID : 1
Format : AC-3
Format/Info : Audio Coding 3
Mode extension : CM (complete main)
Format settings, Endianness : Big
Codec ID : 2000
Duration : 1h 49mn
Bit rate mode : Constant
Bit rate : 384 Kbps
Channel(s) : 6 channels
Channel positions : Front: L C R, Side: L R, LFE
Sampling rate : 48.0 KHz
Bit depth : 16 bits
Compression mode : Lossy
Stream size : 302 MiB (20%)
Alignment : Split accross interleaves
Interleave, duration : 42 ms (1.00 video frame)
Interleave, preload duration : 500 ms
[Профиль] [ЛС]
Кто просматривает тему:

Форум Тема Автор Размер
Программы [Читалки] ВикиФакты - Знаете ли вы? [Android 2.3, RUS + ENG] TorrentFilm 2 MB
Отечественные мультсериалы Алиса знает, что делать! [s01] (2012-2015) Web-DL 1080p от -merci- достали все 22.78 GB
Фильмы (HD DVD, Blu-ray и BDRemux) Бог знает, мистер Аллисон / Heaven Knows, Mr. Allison (1957) BDRemux [1080p] Guest 28.39 GB
Фильмы 2014 года Знает только Бог / By the Gun (Джеймс Моттерн / James Mottern) [2014, США, триллер, драма, криминал, HDRip] VO TorrentFilm 745 MB
Фильмы 2009 года Знаете ли вы меня / Do You Know Me (Пенелопа Байтенхайс / Penelope Buitenhuis) [2009, Канада, США, триллер, криминал, детектив, HDTVRip] MVO TorrentFilm 1.37 GB
Фильмы 2009 года Никто не знает о персидских котах / Kasi az gorbehaye irani khabar nadareh / No One Knows About Persian Cats (Бахман Гобади / Bahman Ghobadi) [2009, Иран, Драма, Музыкальный, DVDRip] Sub Rus TorrentFilm 1.22 GB
Фильмы (DVD 5/9) Никто не знает про секс (Алексей Гордеев) [2006, Россия, комедия, DVD9 ] + Original Rus reversefile 5.13 GB
Фильмы 2009 года Страсть не знает преград / Alle Anderen (Марен Эд / Maren Ade) [2009, Германия, драма, мелодрама, DVDRip] DVO (Селена Интернешнл) + Original (Ger) painkiller 1.47 GB
Показать сообщения:    

Текущее время: Сегодня 00:48

Часовой пояс: GMT



Вы не можете начинать темы
Вы не можете отвечать на сообщения
Вы не можете редактировать свои сообщения
Вы не можете удалять свои сообщения
Вы не можете голосовать в опросах
Вы не можете прикреплять файлы к сообщениям
Вы не можете скачивать файлы