Знаете ли вы меня / Do You Know Me (Пенелопа Байтенхайс / Penelope Buitenhuis) [2009, Канада, США, триллер, криминал, детектив, HDTVRip] MVO

 
Автор Сообщение

TorrentFilm ®

Пол:

Стаж: 2 года

Сообщений: 7741



Награды: Нет

Торрент-статистика

Создавать темы 20-Дек-2014 02:00

[Цитировать]

Знаете ли вы меня / Do You Know Me
Страна: Канада, США
Жанр: триллер, криминал, детектив
Год выпуска: 2009
Продолжительность: 01:25:24
Перевод: Профессиональный (многоголосый закадровый)
Cубтитры: нет
Режиссер: Пенелопа Байтенхайс / Penelope Buitenhuis
В ролях: Рашель Лефевр, Джереми Лондон, Тед Уиттэлл, Линда Бойд, Виктория Даффилд, Эдриан Дорваль, Дин Рэй, Кевин МакНалти, Джина Чиарелли, Ник Ринд
Описание: Отмечая выпускной в компании друзей, юная Элли Картер замечает на пакете молока фотографию пропавшей девочки, как две капли воды похожей на нее. Решив пошутить, Элли звонит оп указанному номеру, однако в ходе разговора становится все очевиднее, что это и вправду может быть она…
Доп. информация: За исходник спасибо Romanok8691
Релиз
Сэмпл: https://yadi.sk/i/ZGQebFuvckZa2
Качество видео: HDTVRip
Формат видео: AVI
Видео: 720x400 (1.80:1), 25 fps, XviD build 50 ~2099 kbps avg, 0.29 bit/pixel
Аудио: 48 kHz, AC3 Dolby Digital, 2/0 (L,R) ch, ~192 kbps

MediaInfo

Знаете ли вы меня -Do You Know Me [by Edich2].avi
Format : AVI
Format/Info : Audio Video Interleave
File size : 1.37 GiB
Duration : 1h 25mn
Overall bit rate : 2 301 Kbps
Movie name : Знаете ли вы меня -Do You Know Me [by Edich2]
Director : Rip by Edich2
Writing application : VirtualDubMod 1.5.10.3 | www.virtualdub-fr.org || (build 2550/release)
Comment : RuTracker.org
Video
ID : 0
Format : MPEG-4 Visual
Format profile : Advanced Simple@L5
Format settings, BVOP : 2
Format settings, QPel : No
Format settings, GMC : No warppoints
Format settings, Matrix : Custom
Codec ID : XVID
Codec ID/Hint : XviD
Duration : 1h 25mn
Bit rate : 2 100 Kbps
Width : 720 pixels
Height : 400 pixels
Display aspect ratio : 16:9
Frame rate : 25.000 fps
Color space : YUV
Chroma subsampling : 4:2:0
Bit depth : 8 bits
Scan type : Progressive
Compression mode : Lossy
Bits/(Pixel*Frame) : 0.292
Stream size : 1.25 GiB (91%)
Writing library : XviD 1.2.1 (UTC 2008-12-04)
Audio
ID : 1
Format : AC-3
Format/Info : Audio Coding 3
Mode extension : CM (complete main)
Format settings, Endianness : Big
Codec ID : 2000
Duration : 1h 25mn
Bit rate mode : Constant
Bit rate : 192 Kbps
Channel(s) : 2 channels
Channel positions : Front: L R
Sampling rate : 48.0 KHz
Bit depth : 16 bits
Compression mode : Lossy
Stream size : 117 MiB (8%)
Alignment : Split accross interleaves
Interleave, duration : 40 ms (1.00 video frame)
Interleave, preload duration : 500 ms

Скриншоты


[Профиль] [ЛС]

Создавать темы 06-Авг-2015 22:54 (спустя 7 месяцев 17 дней)

Топик был перенесен из форума Фильмы до 2014 года в форум Фильмы до 2012 года
sergej644
 

Создавать темы 12-Июн-2016 08:48 (спустя 1 год 5 месяцев)

Топик был перенесен из форума Фильмы 2011 года в форум Фильмы 2009 года
Russian Mafia
 
Кто просматривает тему:

Форум Тема Автор Размер
Программы [Читалки] ВикиФакты - Знаете ли вы? [Android 2.3, RUS + ENG] TorrentFilm 2 MB
Отечественные мультсериалы Алиса знает, что делать! [s01] (2012-2015) Web-DL 1080p от -merci- достали все 22.78 GB
Фильмы (HD DVD, Blu-ray и BDRemux) Бог знает, мистер Аллисон / Heaven Knows, Mr. Allison (1957) BDRemux [1080p] Guest 28.39 GB
Фильмы 2014 года Знает только Бог / By the Gun (Джеймс Моттерн / James Mottern) [2014, США, триллер, драма, криминал, HDRip] VO TorrentFilm 745 MB
Фильмы 2014 года Знает только Бог / By the Gun (Джеймс Моттерн / James Mottern) [2014, США,триллер, драма, криминал, WEB-DLRip] VO TorrentFilm 1.46 GB
Фильмы 2009 года Никто не знает о персидских котах / Kasi az gorbehaye irani khabar nadareh / No One Knows About Persian Cats (Бахман Гобади / Bahman Ghobadi) [2009, Иран, Драма, Музыкальный, DVDRip] Sub Rus TorrentFilm 1.22 GB
Фильмы (DVD 5/9) Никто не знает про секс (Алексей Гордеев) [2006, Россия, комедия, DVD9 ] + Original Rus reversefile 5.13 GB
Фильмы 2009 года Страсть не знает преград / Alle Anderen (Марен Эд / Maren Ade) [2009, Германия, драма, мелодрама, DVDRip] DVO (Селена Интернешнл) + Original (Ger) painkiller 1.47 GB
Показать сообщения:    

Текущее время: Сегодня 22:41

Часовой пояс: GMT



Вы не можете начинать темы
Вы не можете отвечать на сообщения
Вы не можете редактировать свои сообщения
Вы не можете удалять свои сообщения
Вы не можете голосовать в опросах
Вы не можете прикреплять файлы к сообщениям
Вы не можете скачивать файлы