Змий / Le serpent / The snake (Эрик Барбье / Eric Barbier) [2006, Франция, триллер, DVDRip] DVO + Original (Fre) + Sub (Rus)

 
Автор Сообщение

TorrentFilm ®

Пол:

Стаж: 2 года

Сообщений: 7741



Награды: Нет

Торрент-статистика

Создавать темы 21-Дек-2014 02:00

[Цитировать]

Змий / Le serpent
Год выпуска: 2006
Страна: Франция
Жанр: триллер
Продолжительность: 01:56:12
Перевод: Профессиональный (двухголосый, закадровый)
Субтитры: русские - softsub (SRT)
Оригинальная аудиодорожка: французский
Режиссер: Эрик Барбье / Eric Barbier
В ролях: Иван Атталь (Vincent), Кловис Корнийяк (Plender), Пьер Ришар (Cendras), Симон Абкарян (Sam), Минна Хаапкюля (Hélène), Ольга Куриленко (Sofia), Жеральд Ларош (Becker), Жан-Клод Буллон (Max), Вероника Варга (Catherine), Пьер Марзен (Carbona), Бернар Болзингер (Jean-Paul), Ален Серрер (Médecin Pompier)-Мировая премьера: 8 декабря 2006-Описание: Винсент Мандел - фотограф, занятый бракоразводным процессом и борьбой за право опеки над своими детьми. Его и так нелегкое существование становится совершенно невыносимым с появлением «призрака» из прошлого, Джозефа Плендера.
Привлекательный и обольстительный Плендер на деле оказывается чрезвычайно жестоким «хищником», ведомым ненавистью к своему бывшему однокласснику Винсенту и обуянный жаждой мести.
Шантаж, похищение, убийство... Винсент оказывается в аду, и ему не остается иного выхода, кроме как принять правила игры и начать смертельный поединок.
- Рейтинг
kinopoisk.ru: 7.106 (522)
imdb.com: 6.50 (2031)
-Качество: DVDRip
Формат: AVI //SAMPLE//
Видео: 704x384 (1.83:1), 25 fps, XviD MPEG-4 ~1785 kbps avg, 0.26 bit/pixel
Аудио RUS: 48 kHz, AC3 Dolby Digital, 3/2 (L,C,R,l,r) + LFE ch, ~448 kbps - DVO
Аудио FRE: 48 kHz, AC3 Dolby Digital, 3/2 (L,C,R,l,r) + LFE ch, ~448 kbps - Original

MediaInfo

Общее
Полное имя : F:\Video\AVI\Films\Zmij.2006.DUAL.DVDRip.XviD.AC3.-AllFilms\Zmij.2006.DUAL.DVDRip.XviD.AC3.-AllFilms.avi
Формат : AVI
Формат/Информация : Audio Video Interleave
Профиль формата : OpenDML
Размер файла : 2,18 Гбайт
Продолжительность : 1 ч. 56 м.
Общий поток : 2689 Кбит/сек
Название фильма : Змий / Le serpent / The snake (2006)
Режиссёр : Shevon (DVD9)
Программа кодирования : VirtualDubMod 1.5.10.3 | www.virtualdub-fr.org || (build 2550/release)
Правообладатель : AllFilms (torrentfilm.net)
Видео
Идентификатор : 0
Формат : MPEG-4 Visual
Профиль формата : Advanced Simple@L5
Параметр BVOP формата : 1
Параметр QPel формата : Нет
Параметр GMC формата : Без точки перехода
Параметр матрицы формата : Выборочная
Идентификатор кодека : XVID
Идентификатор кодека/Подсказка : XviD
Продолжительность : 1 ч. 56 м.
Битрейт : 1774 Кбит/сек
Ширина : 704 пикселя
Высота : 384 пикселя
Соотношение сторон : 1,85:1
Частота кадров : 25,000 кадров/сек
Цветовое пространство : YUV
Субдискретизация насыщенности : 4:2:0
Битовая глубина : 8 бит
Тип развёртки : Прогрессивная
Метод сжатия : С потерями
Бит/(Пиксели*Кадры) : 0.262
Размер потока : 1,44 Гбайт (66%)
Библиотека кодирования : XviD 65
Аудио #1
Идентификатор : 1
Формат : AC-3
Формат/Информация : Audio Coding 3
Расширение режима : CM (complete main)
Параметр Endianness формата : Big
Идентификатор кодека : 2000
Продолжительность : 1 ч. 56 м.
Вид битрейта : Постоянный
Битрейт : 448 Кбит/сек
Каналы : 6 каналов
Расположение каналов : Front: L C R, Side: L R, LFE
Частота : 48,0 КГц
Битовая глубина : 16 бит
Метод сжатия : С потерями
Размер потока : 372 Мбайт (17%)
Выравнивание : Разделение по промежуткам
Продолжительность промежутка : 40 мс. (1,00 видеокадр)
Время предзагрузки промежутка : 500 мс.
Аудио #2
Идентификатор : 2
Формат : AC-3
Формат/Информация : Audio Coding 3
Расширение режима : CM (complete main)
Параметр Endianness формата : Big
Идентификатор кодека : 2000
Продолжительность : 1 ч. 56 м.
Вид битрейта : Постоянный
Битрейт : 448 Кбит/сек
Каналы : 6 каналов
Расположение каналов : Front: L C R, Side: L R, LFE
Частота : 48,0 КГц
Битовая глубина : 16 бит
Метод сжатия : С потерями
Размер потока : 372 Мбайт (17%)
Выравнивание : Разделение по промежуткам
Продолжительность промежутка : 40 мс. (1,00 видеокадр)
Время предзагрузки промежутка : 500 мс.

Скриншоты


-
[Профиль] [ЛС]

Создавать темы 06-Авг-2015 22:53 (спустя 7 месяцев 16 дней)

Топик был перенесен из форума Фильмы до 2014 года в форум Фильмы до 2012 года
sergej644
 
Кто просматривает тему:

Показать сообщения:    

Текущее время: Сегодня 02:16

Часовой пояс: GMT



Вы не можете начинать темы
Вы не можете отвечать на сообщения
Вы не можете редактировать свои сообщения
Вы не можете удалять свои сообщения
Вы не можете голосовать в опросах
Вы не можете прикреплять файлы к сообщениям
Вы не можете скачивать файлы