Змея в тени орла / Snake in the Eagle's Shadow / Se ying diu sau (1978) BDRip 720p | P, P2, A

 
Автор Сообщение

sergej644 ®

Пол:

Стаж: 4 года 11 месяцев

Сообщений: 6042

Откуда: Soviet Union



Награды: Нет

Торрент-статистика

Создавать темы 11-Фев-2015 12:15

[Цитировать]

Змея в тени орла / Snake in the Eagle's Shadow / Se ying diu sau (1978) BDRip 720p | P, P2, A
- Год выпуска: 1978
Производство: Гонконг / Seasonal Film Corporation
Жанр: боевик, комедия
Режиссер: Юэнь Воо-пин
Сценарий: Чи Йуан Си, Хуо Эн Си, Сяо Лун
Продюсер: Нг Сиюэнь
Актеры: Джеки Чан, Сиу Тиен Юэнь, Янг Ли Хванг, Дин Шек, Рой Хоран, Хак-Он Фанг, Ланг Чан, Чен Тиен Лунг, Йиу Лам Чан, Кэм Чианг, Хсиа Чиен, Чи Чи Линг, Хсю Хсиа, Чианг Ванг
Описание:
Китай времен династии Цин. Бедный сирота Чиен Фу случайно спасает жизнь мастеру кунг-фу Пай Чен-Ченю, последнему оставшемуся в живых представителю школы Змеиного Кулака, уничтоженной зловещим кланом Орлиного Когтя. Благородный мастер берет юношу в ученики, дабы передать ему секреты своего боевого стиля. А ученик оказывается настолько талантлив, что на основе приемов учителя даже создает собственный стиль! Очень своевременное изобретение, которому вскоре придется пройти самую суровую проверку, когда орда адептов Орлиного Когтя во главе с непобедимым Шень Куаном обнаружат Пай Чень-Ченя и являтся убить его.
Перевод: Профессиональный (многоголосый закадровый) [Санкт-Петербург 5-й канал], Профессиональный (двухголосый закадровый) [Видеосервис], Авторский (одноголосый закадровый) [Ю. Сербин], Авторский (одноголосый закадровый) [Л. Володарский]
Вид субтитров: Вшитые отключаемые
Язык субтитров: Русский, Английский

Дата мировой премьеры: 1 марта 1978
Рейтинг MPAA: PG
Возраст: 6+
Продолжительность: 01:37:39
Качество: BDRip [720p]
Видео: MPEG-4 AVC/H.264, 1280x534 (2.40:1), 10.0 Mbps, 23.976 fps
Аудио 1: Русский - AC3 / 2.0 / 192 Kbps / 48.0 KHz - Профессиональный (многоголосый закадровый) [Санкт-Петербург 5-й канал]
Аудио 2: Русский - AC3 / 2.0 / 192 Kbps / 48.0 KHz - Профессиональный (двухголосый закадровый) [Видеосервис]
Аудио 3: Русский - AC3 / 2.0 / 192 Kbps / 48.0 KHz - Авторский (одноголосый закадровый) [Ю. Сербин]
Аудио 4: Русский - AC3 / 2.0 / 192 Kbps / 48.0 KHz - Авторский (одноголосый закадровый) [Л. Володарский]
Аудио 5: Китайский - AC3 / 2.0 / 192 Kbps / 48.0 KHz - Оригинальный

MediaInfo

General
Unique ID : 224966728352334601461701989575233975556 (0xA93F040F8FE6B6C6BCACE881C68D3504)
Complete name : I:modoutSnake.in.the.Eagle's.Shadow.1978.BDRip.720p.PP2A.mkv
Format : Matroska
Format version : Version 4 / Version 2
File size : 7.72 GiB
Duration : 1h 37mn
Overall bit rate : 11.3 Mbps
Movie name : Snake in the Eagle's Shadow (1978)
Encoded date : UTC 2014-10-27 14:56:53
Writing application : mkvmerge v7.3.0 ('Nouages') 64bit built on Oct 22 2014 18:53:34
Writing library : libebml v1.3.0 + libmatroska v1.4.1
Attachements : cover.jpg / info.txt
DURATION : 01:37:38.944000000
NUMBER_OF_FRAMES : 183092
NUMBER_OF_BYTES : 140614656
_STATISTICS_WRITING_APP : mkvmerge v7.3.0 ('Nouages') 64bit built on Oct 22 2014 18:53:34
_STATISTICS_WRITING_DATE_UTC : 2014-10-27 14:56:53
_STATISTICS_TAGS : BPS DURATION NUMBER_OF_FRAMES NUMBER_OF_BYTES
Video
ID : 1
Format : AVC
Format/Info : Advanced Video Codec
Format profile : High@L4.1
Format settings, CABAC : Yes
Format settings, ReFrames : 9 frames
Codec ID : V_MPEG4/ISO/AVC
Duration : 1h 37mn
Bit rate : 10.1 Mbps
Width : 1 280 pixels
Height : 534 pixels
Display aspect ratio : 2.40:1
Frame rate mode : Constant
Frame rate : 23.976 fps
Color space : YUV
Chroma subsampling : 4:2:0
Bit depth : 8 bits
Scan type : Progressive
Bits/(Pixel*Frame) : 0.618
Stream size : 6.91 GiB (90%)
Title : Snake in the Eagle's Shadow (1978)
Language : English
Default : Yes
Forced : No
Color primaries : BT.709
Transfer characteristics : BT.709
Matrix coefficients : BT.709
DURATION : 01:37:38.853000000
NUMBER_OF_FRAMES : 140472
NUMBER_OF_BYTES : 7580979326
_STATISTICS_WRITING_APP : mkvmerge v7.3.0 ('Nouages') 64bit built on Oct 22 2014 18:53:34
_STATISTICS_WRITING_DATE_UTC : 2014-10-27 14:56:53
_STATISTICS_TAGS : BPS DURATION NUMBER_OF_FRAMES NUMBER_OF_BYTES
Audio #1
ID : 2
Format : AC-3
Format/Info : Audio Coding 3
Mode extension : CM (complete main)
Format settings, Endianness : Big
Codec ID : A_AC3
Duration : 1h 37mn
Bit rate mode : Constant
Bit rate : 192 Kbps
Channel(s) : 2 channels
Channel positions : Front: L R
Sampling rate : 48.0 KHz
Bit depth : 16 bits
Compression mode : Lossy
Stream size : 134 MiB (2%)
Title : MVO [SPB 5-canal]
Language : Russian
Default : Yes
Forced : No
Audio #2
ID : 3
Format : AC-3
Format/Info : Audio Coding 3
Mode extension : CM (complete main)
Format settings, Endianness : Big
Codec ID : A_AC3
Duration : 1h 37mn
Bit rate mode : Constant
Bit rate : 192 Kbps
Channel(s) : 2 channels
Channel positions : Front: L R
Sampling rate : 48.0 KHz
Bit depth : 16 bits
Compression mode : Lossy
Stream size : 134 MiB (2%)
Title : DVO [Video-Service]
Language : Russian
Default : No
Forced : No
Audio #3
ID : 4
Format : AC-3
Format/Info : Audio Coding 3
Mode extension : CM (complete main)
Format settings, Endianness : Big
Codec ID : A_AC3
Duration : 1h 37mn
Bit rate mode : Constant
Bit rate : 192 Kbps
Channel(s) : 2 channels
Channel positions : Front: L R
Sampling rate : 48.0 KHz
Bit depth : 16 bits
Compression mode : Lossy
Stream size : 134 MiB (2%)
Title : AVO [Y.Serbin]
Language : Russian
Default : No
Forced : No
Audio #4
ID : 5
Format : AC-3
Format/Info : Audio Coding 3
Mode extension : CM (complete main)
Format settings, Endianness : Big
Codec ID : A_AC3
Duration : 1h 37mn
Bit rate mode : Constant
Bit rate : 192 Kbps
Channel(s) : 2 channels
Channel positions : Front: L R
Sampling rate : 48.0 KHz
Bit depth : 16 bits
Compression mode : Lossy
Stream size : 134 MiB (2%)
Title : AVO [L.Volodarsky]
Language : Russian
Default : No
Forced : No
Audio #5
ID : 6
Format : AC-3
Format/Info : Audio Coding 3
Mode extension : CM (complete main)
Format settings, Endianness : Big
Codec ID : A_AC3
Duration : 1h 37mn
Bit rate mode : Constant
Bit rate : 192 Kbps
Channel(s) : 2 channels
Channel positions : Front: L R
Sampling rate : 48.0 KHz
Bit depth : 16 bits
Compression mode : Lossy
Stream size : 134 MiB (2%)
Title : Original
Language : Chinese
Default : No
Forced : No
Text #1
ID : 7
Format : UTF-8
Codec ID : S_TEXT/UTF8
Codec ID/Info : UTF-8 Plain Text
Language : Russian
Default : No
Forced : No
Text #2
ID : 8
Format : UTF-8
Codec ID : S_TEXT/UTF8
Codec ID/Info : UTF-8 Plain Text
Language : English
Default : No
Forced : No
Menu
00:00:00.000 : en:Chapter 01
00:05:07.682 : en:Chapter 02
00:08:57.828 : en:Chapter 03
00:15:36.769 : en:Chapter 04
00:22:27.137 : en:Chapter 05
00:28:04.224 : en:Chapter 06
00:32:31.991 : en:Chapter 07
00:35:41.639 : en:Chapter 08
00:40:51.073 : en:Chapter 09
00:45:42.531 : en:Chapter 10
00:51:24.748 : en:Chapter 11
00:57:12.929 : en:Chapter 12
01:12:19.001 : en:Chapter 13
01:19:04.114 : en:Chapter 14
01:23:48.898 : en:Chapter 15
01:29:22.190 : en:Chapter 16

x264 лог

x264 [info]: started at Sat Oct 25 21:52:22 2014
x264 [info]: frame I:935 Avg QP:17.38 size:137774
x264 [info]: frame P:31990 Avg QP:18.76 size: 85518
x264 [info]: frame B:107547 Avg QP:20.22 size: 43855
x264 [info]: consecutive B-frames: 2.4% 4.6% 8.4% 23.1% 16.1% 29.7% 6.2% 6.1% 1.4% 0.6% 0.3% 0.7% 0.1% 0.0% 0.2%
x264 [info]: mb I I16..4: 24.8% 52.9% 22.3%
x264 [info]: mb P I16..4: 9.8% 22.5% 6.0% P16..4: 17.8% 25.6% 13.2% 4.3% 0.3% skip: 0.4%
x264 [info]: mb B I16..4: 0.7% 6.9% 0.7% B16..8: 33.2% 24.5% 7.4% direct:14.5% skip:12.1% L0:37.0% L1:39.3% BI:23.7%
x264 [info]: 8x8 transform intra:68.6% inter:44.3%
x264 [info]: coded y,uvDC,uvAC intra: 99.0% 84.5% 58.0% inter: 69.8% 44.6% 9.9%
x264 [info]: i16 v,h,dc,p: 1% 1% 43% 56%
x264 [info]: i8 v,h,dc,ddl,ddr,vr,hd,vl,hu: 10% 9% 14% 9% 11% 11% 12% 11% 13%
x264 [info]: i4 v,h,dc,ddl,ddr,vr,hd,vl,hu: 16% 7% 7% 9% 14% 12% 13% 10% 13%
x264 [info]: i8c dc,h,v,p: 37% 26% 19% 18%
x264 [info]: Weighted P-Frames: Y:9.8% UV:6.5%
x264 [info]: ref P L0: 50.8% 18.1% 12.8% 5.9% 4.1% 3.0% 2.3% 1.4% 1.3% 0.2% 0.0%
x264 [info]: ref B L0: 83.5% 7.5% 3.7% 1.8% 1.3% 1.0% 0.8% 0.3%
x264 [info]: ref B L1: 94.3% 5.7%
x264 [info]: kb/s:10351.49

Скриншоты:


[Профиль] [ЛС]
Кто просматривает тему:

Показать сообщения:    

Текущее время: Сегодня 22:07

Часовой пояс: GMT



Вы не можете начинать темы
Вы не можете отвечать на сообщения
Вы не можете редактировать свои сообщения
Вы не можете удалять свои сообщения
Вы не можете голосовать в опросах
Вы не можете прикреплять файлы к сообщениям
Вы не можете скачивать файлы