Змеиный полет / Snakes on a Plane (Дэвид Р. Эллис / David R. Ellis, Лекс Халаби / Lex Halaby) [2006, Германия, США, Канада, боевик, триллер, SATRip] [Full Screen] Dub

 
Автор Сообщение

TorrentFilm ®

Пол:

Стаж: 2 года

Сообщений: 7741



Награды: Нет

Торрент-статистика

Создавать темы 05-Мар-2016 00:09

[Цитировать]

Змеиный полет / Snakes on a Plane / Full Screen
Страна: Германия, США, Канада
Жанр: боевик, триллер
Год выпуска: 2006
Продолжительность: 01:34:50
Перевод: Профессиональный (дублированный)
Cубтитры: нет
Оригинальная аудиодорожка: нет
Режиссер: Дэвид Р. Эллис / David R. Ellis, Лекс Халаби / Lex Halaby
В ролях: Сэмюэл Л. Джексон, Джулианна Маргулис, Натан Филлипс, Рейчел Блэнчард, Флекс Александр, Кенан Томпсон, Кейт Даллас, Лин Шэй, Брюс Джеймс, Санни Мабри и др.
Описание: На борту огромного двухпалубного Боинга, летящего над Тихим океаном, находятся безжалостные хладнокровные убийцы, множество убийц. Их задача — покончить с пассажиром, проходящим свидетелем по делу об обвинении крупного мафиозо.
Доп. информация: Наполнение кадра отличается от BD http://screenshotcomparison.com/comparison/164357
Сэмпл: http://multi-up.com/1091755
Качество видео: SATRip
Формат видео: AVI
Видео: MPEG4, XviD, 704x528 (4:3), 25.000 fps, 1 990 Kbps (0.214 bit/pixel)
Аудио: AC-3, 48.0 KHz, 2 ch, 192 Kbps, CBR

MediaInfo

Общее
Полное имя : N:\Змеиный полет.avi
Формат : AVI
Формат/Информация : Audio Video Interleave
Размер файла : 1,45 Гбайт
Продолжительность : 1 ч. 34 м.
Общий поток : 2192 Кбит/сек
Название фильма : Змеиный полет / Snakes on a Plane (2006)
Программа кодирования : VirtualDubMod 1.5.10.2 (build 2540/release)
Библиотека кодирования : VirtualDubMod build 2540/release
Авторское право : miha2154
Видео
Идентификатор : 0
Формат : MPEG-4 Visual
Профиль формата : Advanced Simple@L5
Параметр BVOP формата : 1
Параметр QPel формата : Нет
Параметр GMC формата : Без точки перехода
Параметр матрицы формата : Выборочная
Идентификатор кодека : XVID
Идентификатор кодека/Подсказка : XviD
Продолжительность : 1 ч. 34 м.
Битрейт : 1990 Кбит/сек
Ширина : 704 пикселя
Высота : 528 пикселей
Соотношение сторон : 4:3
Частота кадров : 25,000 кадров/сек
Цветовое пространство : YUV
Субдискретизация насыщенности : 4:2:0
Битовая глубина : 8 бит
Тип развёртки : Прогрессивная
Метод сжатия : С потерями
Бит/(Пиксели*Кадры) : 0.214
Размер потока : 1,32 Гбайт (91%)
Библиотека кодирования : XviD 65
Аудио
Идентификатор : 1
Формат : AC-3
Формат/Информация : Audio Coding 3
Расширение режима : CM (complete main)
Параметр Endianness формата : Big
Идентификатор кодека : 2000
Продолжительность : 1 ч. 34 м.
Вид битрейта : Постоянный
Битрейт : 192 Кбит/сек
Каналы : 2 канала
Расположение каналов : Front: L R
Частота : 48,0 КГц
Частота кадров : 31,250 кадров/сек (1536 spf)
Метод сжатия : С потерями
Размер потока : 130 Мбайт (9%)
Выравнивание : Разделение по промежуткам
Продолжительность промежутка : 40 мс. (1,00 видеокадр)
Время предзагрузки промежутка : 500 мс.
Заголовок : Профессиональный (полное дублирование)

Скриншоты


[Профиль] [ЛС]
Показать сообщения:    

Текущее время: Сегодня 22:07

Часовой пояс: GMT



Вы не можете начинать темы
Вы не можете отвечать на сообщения
Вы не можете редактировать свои сообщения
Вы не можете удалять свои сообщения
Вы не можете голосовать в опросах
Вы не можете прикреплять файлы к сообщениям
Вы не можете скачивать файлы