Зло на День матери / Странный тип / Mother\'s Day Evil / Curio (Стивен Несбит / Steven Nesbit) [2010, Великобритания, триллер, ужасы, комедия, DVDRip] VO (Хэм)

 
Автор Сообщение

painkiller ®

Стаж: 2 года 3 месяца

Сообщений: 582



Награды: Нет

Торрент-статистика

Создавать темы 14-Авг-2014 09:11

[Цитировать]

Зло на День матери / Странный тип / Mother's Day Evil / Curio
Страна: Великобритания
Жанр: триллер, ужасы, комедия
Год выпуска: 2010
Продолжительность: 01:35:40
Перевод: Одноголосый закадровый (Хэм). Присутствует ненормативная лексика.
Cубтитры: нет
Режиссер: Стивен Несбит / Steven Nesbit
В ролях: Уэйн Расселл, Дженнифер Брайер, Сидни Уэйд, Алан Никсон, Джейн Бакл,
Описание: Американка Лорен едет с дочерью Эмили в британскую глубинку, чтобы посмотреть на нежданно-негаданно доставшийся ей по наследству от дядьки дом. Визит в провинцию складывается неудачно — тем же вечером сельский полицейский обвиняет Лорен в убийстве местной старушки и, надев на неё наручники, пытается отправить в участок. Рьяно сопротивляясь аресту, Лорен теряет сознание.
На следующий день она с растяжением связок и огнестрельным ранением просыпается в доме, принадлежащем некоему Леонарду. Случившегося накануне женщина не помнит, но Леонард сообщает, что ночью нашёл её и Эмили в поле. Стараясь казаться заботливым хозяином, он всё же производит впечатление человека неуравновешенного, к тому же просьбы Лорен увидеть дочь остаются без внимания.
Доп. информация: IMDB / Кинопоиск / Ragedevil - благодарность за рип как обычно
Сэмпл: http://multi-up.com/982551
Качество видео: DVDRip
Формат видео: AVI
Видео: XVID, 720x384, 1,85:1, 25,0 fps, 1902 kbps
Аудио: MP3, 48 kHz, 128 kbps, 2.0

MediaInfo

General
Complete name : D:\Movs\Mothers.Day.Evil.2010.Rus.avi
Format : AVI
Format/Info : Audio Video Interleave
File size : 1.36 GiB
Duration : 1h 35mn
Overall bit rate : 2 039 Kbps
Writing application : VirtualDubMod 1.5.10.3 | www.virtualdub-fr.org || (build 2550/release)
Writing library : VirtualDub build 32817/release
Video
ID : 0
Format : MPEG-4 Visual
Format profile : Advanced Simple@L5
Format settings, BVOP : 2
Format settings, QPel : No
Format settings, GMC : No warppoints
Format settings, Matrix : Custom
Codec ID : XVID
Codec ID/Hint : XviD
Duration : 1h 35mn
Bit rate : 1 902 Kbps
Width : 720 pixels
Height : 384 pixels
Display aspect ratio : 1.85:1
Frame rate : 25.000 fps
Color space : YUV
Chroma subsampling : 4:2:0
Bit depth : 8 bits
Scan type : Progressive
Compression mode : Lossy
Bits/(Pixel*Frame) : 0.275
Stream size : 1.27 GiB (93%)
Writing library : XviD 1.2.1 (UTC 2008-12-04)
Audio
ID : 1
Format : MPEG Audio
Format version : Version 1
Format profile : Layer 3
Mode : Joint stereo
Mode extension : MS Stereo
Codec ID : 55
Codec ID/Hint : MP3
Duration : 1h 35mn
Bit rate mode : Constant
Bit rate : 128 Kbps
Channel(s) : 2 channels
Sampling rate : 48.0 KHz
Compression mode : Lossy
Stream size : 87.6 MiB (6%)
Alignment : Split accross interleaves
Interleave, duration : 40 ms (1.00 video frame)
Interleave, preload duration : 500 ms

Скриншот c названием фильма

Скриншоты

Обложки от Ragedevil

[Профиль] [ЛС]

Создавать темы 06-Авг-2015 23:17 (спустя 11 месяцев 23 дня)

Топик был перенесен из форума Фильмы до 2014 года в форум Фильмы до 2012 года
sergej644
 

Создавать темы 12-Июн-2016 07:54 (спустя 1 год 9 месяцев)

Топик был перенесен из форума Фильмы 2011 года в форум Фильмы 2010 года
Russian Mafia
 
Кто просматривает тему:

Показать сообщения:    

Текущее время: Сегодня 12:49

Часовой пояс: GMT



Вы не можете начинать темы
Вы не можете отвечать на сообщения
Вы не можете редактировать свои сообщения
Вы не можете удалять свои сообщения
Вы не можете голосовать в опросах
Вы не можете прикреплять файлы к сообщениям
Вы не можете скачивать файлы