Злой внутри / The Wicked Within (2015) WEB-DL 720p | L1

 
Автор Сообщение

достали все ®

Пол:

Стаж: 2 года

Сообщений: 6796



Награды: 12 (Подробнее)

Top Releaser 2 (Количество: 1) Mega Releaser 2 (Количество: 1) Mega Seeder 3 (Количество: 1)
Торрент-статистика

Создавать темы 27-Апр-2016 09:01

[Цитировать]

Информация о фильме
Название: Злой внутри
Оригинальное название: The Wicked Within
Год выхода: 2015
Жанр: ужасы
Режиссер: Джей Алаймо
В ролях: Сиенна Гиллори, Джанни Капальди, Энцо Чиленти, Мишель Хикс, Эрик Робертс, Карен Остин, Соня Кински, Хит Фриман, Патрик Малдун, Сара Лассез
О фильме: Когда 3х летняя дочка Эмма погибает в результате несчастного случая, вся ее родня собирается, чтобы оплакать потерю. Но мстительный демон овладевает каждым членом семьи и заставляет признаваться в своих обманах и грехах, которые несут за собой последствия.

Выпущено: США / High Five Films, Wicked Within Movie
Продолжительность: 01:23:36
Озвучивание: Любительское (одноголосое) [Хихикающий доктор]
Файл
Формат: MKV
Качество: WEB-DL 720p
Видео: MPEG-4 AVC, 3914 kb/s, 1280x718
Аудио: Russian: AC3, 192 kb/s (2 ch) / English: AC3, 384 kb/s (6 ch)
Субтитры: English

MI

Format : Matroska
Format version : Version 2
File size : 2.68 GiB
Duration : 1h 23mn
Overall bit rate : 4 581 Kbps
Encoded date : UTC 2016-04-27 05:22:23
Writing application : mkvmerge v7.8.0 ('River Man') 32bit built on Apr 3 2015 12:11:22
Writing library : libebml v1.3.1 + libmatroska v1.4.2
Video
ID : 1
Format : AVC
Format/Info : Advanced Video Codec
Format profile : High@L3.1
Format settings, CABAC : No
Format settings, ReFrames : 2 frames
Codec ID : V_MPEG4/ISO/AVC
Duration : 1h 23mn
Bit rate : 3 914 Kbps
Width : 1 280 pixels
Height : 718 pixels
Display aspect ratio : 16:9
Frame rate mode : Constant
Frame rate : 23.976 fps
Color space : YUV
Chroma subsampling : 4:2:0
Bit depth : 8 bits
Scan type : Progressive
Bits/(Pixel*Frame) : 0.178
Stream size : 2.29 GiB (85%)
Language : English
Default : Yes
Forced : No
Color range : Limited
Color primaries : BT.709
Transfer characteristics : BT.709
Matrix coefficients : BT.709
Audio #1
ID : 2
Format : AC-3
Format/Info : Audio Coding 3
Mode extension : CM (complete main)
Format settings, Endianness : Big
Codec ID : A_AC3
Duration : 1h 23mn
Bit rate mode : Constant
Bit rate : 192 Kbps
Channel(s) : 2 channels
Channel positions : Front: L R
Sampling rate : 48.0 KHz
Bit depth : 16 bits
Compression mode : Lossy
Stream size : 115 MiB (4%)
Language : Russian
Default : Yes
Forced : No
Audio #2
ID : 3
Format : AC-3
Format/Info : Audio Coding 3
Mode extension : CM (complete main)
Format settings, Endianness : Big
Codec ID : A_AC3
Duration : 1h 23mn
Bit rate mode : Constant
Bit rate : 384 Kbps
Channel(s) : 6 channels
Channel positions : Front: L C R, Side: L R, LFE
Sampling rate : 48.0 KHz
Bit depth : 16 bits
Compression mode : Lossy
Stream size : 230 MiB (8%)
Language : English
Default : No
Forced : No
Text
ID : 4
Format : UTF-8
Codec ID : S_TEXT/UTF8
Codec ID/Info : UTF-8 Plain Text
Language : English
Default : No
Forced : No
Menu
00:00:00.000 : en:Chapter 01
00:04:00.000 : en:Chapter 02
00:12:19.000 : en:Chapter 03
00:20:58.000 : en:Chapter 04
00:28:39.000 : en:Chapter 05
00:38:14.000 : en:Chapter 06
00:45:24.000 : en:Chapter 07
00:53:12.000 : en:Chapter 08
01:00:21.000 : en:Chapter 09
01:06:44.000 : en:Chapter 10
01:13:55.000 : en:Chapter 11
01:21:26.000 : en:Chapter 12

Скриншоты



[Профиль] [ЛС]
Кто просматривает тему:

Показать сообщения:    

Текущее время: Сегодня 22:48

Часовой пояс: GMT



Вы не можете начинать темы
Вы не можете отвечать на сообщения
Вы не можете редактировать свои сообщения
Вы не можете удалять свои сообщения
Вы не можете голосовать в опросах
Вы не можете прикреплять файлы к сообщениям
Вы не можете скачивать файлы