Злодей / Ek Villain (2014) HDRip-AVC от ExKinoRay | L

 
Автор Сообщение

sergej644 ®

Пол:

Стаж: 4 года 11 месяцев

Сообщений: 6043

Откуда: Soviet Union



Награды: Нет

Торрент-статистика

Создавать темы 18-Ноя-2014 20:49

[Цитировать]

Информация о фильме
Название: Злодей
Оригинальное название: Ek Villain
Год выпуска: 2014
Жанр: Боевик, триллер, мелодрама
Выпущено: Индия, Balaji Motion Pictures
Режиссер: Мохит Сури
В ролях: Прачи Десай, Ритеш Дешмукх, Шраддха Капур, Сидхартх Мальхотра, Шаад Рандхава, Аамна Шарифф, Камал Рашид Кхан, Ремо Фернандес
О фильме: В жизни жестокого бандита Гуру не было даже тонкого лучика света, пока не появилась Она. Она изменила все. Она научила его жить, любить, радоваться. Но Ее отняли. Хладнокровный убийца забрал самое дорогое в жизни Гуру. Теперь у Гуру один путь-месть.

Файл
Качество: HDRip (AVC)
Видео: MPEG-4 AVC, 1849 Кбит/с, 1024x434
Аудио: AC3, 6 ch, 448 Кбит/с
Продолжительность: 02:08:49
Перевод: Любительский многоголосый
Субтитры: Русские (только на песни)

MI

General
Unique ID : 213928070078753022928278252220785531028 (0xA0F10C303B6DF4F69D660B4E57229894)
Complete name : C:Odin.zlodei.2014.L.HDRip.AVC.ExKinoRay.mkv
Format : Matroska
Format version : Version 2
File size : 2.07 GiB
Duration : 2h 8mn
Overall bit rate : 2 299 Kbps
Movie name : Ek Villain 2014 from ExKinoRay
Encoded date : UTC 2014-11-18 18:53:58
Writing application : mkvmerge v4.9.1 ('Ich will') built on Jul 11 2011 23:53:15
Writing library : libebml v1.2.1 + libmatroska v1.1.1
Video
ID : 1
Format : AVC
Format/Info : Advanced Video Codec
Format profile : High@L4.1
Format settings, CABAC : Yes
Format settings, ReFrames : 8 frames
Codec ID : V_MPEG4/ISO/AVC
Duration : 2h 8mn
Bit rate : 1 849 Kbps
Width : 1 024 pixels
Height : 434 pixels
Display aspect ratio : 2.35:1
Frame rate mode : Constant
Frame rate : 24.000 fps
Color space : YUV
Chroma subsampling : 4:2:0
Bit depth : 8 bits
Scan type : Progressive
Bits/(Pixel*Frame) : 0.173
Stream size : 1.62 GiB (79%)
Title : Enigma-Vladislav71
Writing library : x264 core 116 r2044 392e762
Encoding settings : cabac=1 / ref=8 / deblock=1:-2:-2 / analyse=0x3:0x113 / me=umh / subme=11 / psy=1 / psy_rd=1.00:0.20 / mixed_ref=1 / me_range=32 / chroma_me=1 / trellis=2 / 8x8dct=1 / cqm=0 / deadzone=21,11 / fast_pskip=0 / chroma_qp_offset=-3 / threads=12 / sliced_threads=0 / nr=0 / decimate=0 / interlaced=0 / bluray_compat=0 / constrained_intra=0 / bframes=9 / b_pyramid=2 / b_adapt=2 / b_bias=0 / direct=3 / weightb=1 / open_gop=0 / weightp=2 / keyint=240 / keyint_min=24 / scenecut=40 / intra_refresh=0 / rc=2pass / mbtree=0 / bitrate=1849 / ratetol=1.0 / qcomp=0.60 / qpmin=0 / qpmax=69 / qpstep=4 / cplxblur=20.0 / qblur=0.5 / ip_ratio=1.40 / pb_ratio=1.30 / aq=1:1.00
Default : Yes
Forced : No
Audio
ID : 2
Format : AC-3
Format/Info : Audio Coding 3
Mode extension : CM (complete main)
Format settings, Endianness : Big
Codec ID : A_AC3
Duration : 2h 8mn
Bit rate mode : Constant
Bit rate : 448 Kbps
Channel(s) : 6 channels
Channel positions : Front: L C R, Side: L R, LFE
Sampling rate : 48.0 KHz
Bit depth : 16 bits
Compression mode : Lossy
Stream size : 413 MiB (19%)
Title : Любительский многоголосый (ICG)
Language : Russian
Default : Yes
Forced : No
Text
ID : 3
Format : UTF-8
Codec ID : S_TEXT/UTF8
Codec ID/Info : UTF-8 Plain Text
Title : на песни
Language : Russian
Default : No
Forced : No
Menu
00:00:00.000 : en:00:00:00.000
00:05:11.375 : en:00:05:11.375
00:08:22.250 : en:00:08:22.250
00:12:08.500 : en:00:12:08.500
00:20:23.417 : en:00:20:23.417
00:22:41.458 : en:00:22:41.458
00:29:17.417 : en:00:29:17.417
00:30:14.833 : en:00:30:14.833
00:32:44.417 : en:00:32:44.417
00:37:23.750 : en:00:37:23.750
00:43:33.083 : en:00:43:33.083
00:53:59.708 : en:00:53:59.708
01:02:31.625 : en:01:02:31.625
01:07:07.083 : en:01:07:07.083
01:16:15.417 : en:01:16:15.417
01:20:24.542 : en:01:20:24.542
01:25:49.000 : en:01:25:49.000
01:31:43.417 : en:01:31:43.417
01:36:48.000 : en:01:36:48.000
01:42:23.000 : en:01:42:23.000
01:45:54.417 : en:01:45:54.417
01:55:01.000 : en:01:55:01.000
02:04:50.333 : en:02:04:50.333

Скриншоты



Релиз от:
Автор релиза:
[Профиль] [ЛС]
Кто просматривает тему:

Форум Тема Автор Размер
Rock (Рок) Юность Злодеев - MCMLXXXIII - 2015, MP3, 320 kbps достали все 82 MB
Показать сообщения:    

Текущее время: Сегодня 02:23

Часовой пояс: GMT



Вы не можете начинать темы
Вы не можете отвечать на сообщения
Вы не можете редактировать свои сообщения
Вы не можете удалять свои сообщения
Вы не можете голосовать в опросах
Вы не можете прикреплять файлы к сообщениям
Вы не можете скачивать файлы