Зловещие мертвецы 3: Армия тьмы / Army of Darkness (1992) HDRip | Director's Cut | КПК | P

 
Автор Сообщение

Шкипер ®

Пол:

Стаж: 1 год 7 месяцев

Сообщений: 52



Награды: Нет

Торрент-статистика

Создавать темы 20-Сен-2016 09:31

[Цитировать]

Информация о фильме
Название: Зловещие мертвецы 3: Армия тьмы
Оригинальное название: Army of Darkness
Год выхода: 1992
Жанр: Ужасы, фэнтези, боевик, комедия
Режиссер: Сэм Рэйми / Sam Raimi
В ролях: Брюс Кэмпбелл, Эмбет Дэвидц, Маркус Гилберт, Йен Эберкромби, Ричард Гроув, Тимоти Патрик Куилл, Майкл Эрл Рейд, Бриджит Фонда, Патриша Тэллман, Тед Рэйми, Дек Андерсон, Брюс Томас
О фильме:
По воле случая Эш переносится в далекое прошлое. Вместе со своим автомобилем и двухстволкой он оказывается в 13 веке. В этом мрачном средневековье люди страдают от сил тьмы. Бедняга Эш был пойман добропорядочными гражданами и помещен в местную тюрьму. Он с трудом смог убедить судью в том, что он вовсе не шпион из враждебного королевства. Он решает помочь людям в битве с врагами.

Страна: США
Продолжительность: 01:36:22
Перевод: Профессиональный (многоголосый, закадровый)- Киномания
Файл
Кодек: h264
Качество: HDRip| КПК
Видео: MPEG4 Video (H264), 480x272, 23.976fps, ~500kbps, 0.160 Bits/Pixel
Звук: AAC lc, 44100Hz, 2ch, 126kbps
Субтитры: Отсутствуют
Семпл

MI

General
Complete name : E:Изготовление рипаArmija.Tbmy.HDRip by shkiper.mp4
Format : MPEG-4
Format profile : Base Media
Codec ID : isom (isom/avc1)
File size : 433 MiB
Duration : 1h 36mn
Overall bit rate mode : Variable
Overall bit rate : 629 Kbps
Encoded date : UTC 2016-09-19 07:45:56
Tagged date : UTC 2016-09-19 07:45:56
Video
ID : 1
Format : AVC
Format/Info : Advanced Video Codec
Format profile : Baseline@L3
Format settings, CABAC : No
Format settings, ReFrames : 1 frame
Codec ID : avc1
Codec ID/Info : Advanced Video Coding
Duration : 1h 36mn
Bit rate : 500 Kbps
Maximum bit rate : 1 149 Kbps
Width : 480 pixels
Height : 272 pixels
Display aspect ratio : 16:9
Frame rate mode : Constant
Frame rate : 23.976 (24000/1001) fps
Original frame rate : 23.976 (23976/1000) fps
Color space : YUV
Chroma subsampling : 4:2:0
Bit depth : 8 bits
Scan type : Progressive
Bits/(Pixel*Frame) : 0.160
Stream size : 345 MiB (79%)
Title : Imported with GPAC 0.4.6-DEV (internal rev. 5)
Writing library : x264 core 67 r1165M 6841c5e
Encoding settings : cabac=0 / ref=1 / deblock=1:0:0 / analyse=0x1:0 / me=hex / subme=6 / psy_rd=1.0:0.0 / mixed_ref=0 / me_range=16 / chroma_me=1 / trellis=0 / 8x8dct=0 / cqm=0 / deadzone=21,11 / chroma_qp_offset=-2 / threads=3 / nr=0 / decimate=1 / mbaff=0 / bframes=0 / keyint=250 / keyint_min=25 / scenecut=40 / rc=2pass / bitrate=500 / ratetol=1.0 / qcomp=0.60 / qpmin=10 / qpmax=51 / qpstep=4 / cplxblur=20.0 / qblur=0.5 / vbv_maxrate=1500 / vbv_bufsize=2000 / ip_ratio=1.40 / aq=1:1.00
Encoded date : UTC 2016-09-19 07:45:56
Tagged date : UTC 2016-09-19 07:46:36
Audio
ID : 2
Format : AAC
Format/Info : Advanced Audio Codec
Format profile : LC
Codec ID : 40
Duration : 1h 36mn
Bit rate mode : Variable
Bit rate : 127 Kbps
Maximum bit rate : 215 Kbps
Channel(s) : 2 channels
Channel positions : Front: L R
Sampling rate : 44.1 KHz
Frame rate : 43.066 fps (1024 spf)
Compression mode : Lossy
Stream size : 87.2 MiB (20%)
Title : Imported with GPAC 0.4.6-DEV (internal rev. 5)
Encoded date : UTC 2016-09-19 07:46:27
Tagged date : UTC 2016-09-19 07:46:36

Скриншоты

Релиз от:
[Профиль] [ЛС]

Создавать темы 19-Окт-2016 07:44 (спустя 28 дней)

Топик был перенесен из форума Фильмы для iOS,iPad, iPhone в форум Видео для КПК и Смартфонов
Russian Mafia
 
Кто просматривает тему:

Форум Тема Автор Размер
Фильмы 2015 года Добро пожаловать в рай / Зловещенск / Злость / Vice (Брайан А Миллер / Brian A Miller) [2015, США, фантастика, боевик, триллер, приключения, HDRip] VO (ИндивИдуалист) TorrentFilm 1.46 GB
Фильмы 2015 года Зловещенск / Злость / Добро пожаловать в рай / Vice (Брайан А Миллер / Brian A Miller) [2015, США, фантастика, боевик, триллер, приключения, HDRip] VO (ИндивИдуалист) TorrentFilm 750 MB
Фильмы 2015 года Зловещие Алкаши 2: Белая горячка / Evil Dead II (2015) HDRip | Смешной перевод достали все 1.43 GB
Фильмы 2016 года Зловещие Алкаши 4: Алкогольная Книга / Evil Dead (2016) HDRip | L1 ODESSA 1.36 GB
Фильмы 2016 года Зловещие алкаши: Бухое начало / The Evil Dead (2016) HDRip | Смешной перевод достали все 1.3 GB
Приключения, Квесты, Логические Зловещие вещи 3: Тропами времени. Коллекционное издание (2015) PC достали все 1.04 GB
Приключения, Квесты, Логические Зловещие вещи: Семейный портрет - Коллекционное издание (2014) PC sergej644 1.43 GB
Зарубежные сериалы Зловещие мертвецы: КОЛЛЕКЦИЯ/ Evil Dead: collect ( Сэм Рэйми, Майкл Херст,Федерико Альварес) [1981,2015 , Ужасы, боевик, комедия , HD 1080р] [Rus ,Eng]+[Sub Rus , Eng] Враг Нароода 64.58 GB
Показать сообщения:    

Текущее время: Сегодня 04:24

Часовой пояс: GMT



Вы не можете начинать темы
Вы не можете отвечать на сообщения
Вы не можете редактировать свои сообщения
Вы не можете удалять свои сообщения
Вы не можете голосовать в опросах
Вы не можете прикреплять файлы к сообщениям
Вы не можете скачивать файлы