Злобный тип / The Vicious Kind (Ли Толанд Кригер / Lee Toland Krieger) [2009, США, драма, комедия, WEB-DLRip] MVO (1 ТВЧ)

 
Автор Сообщение

TorrentFilm ®

Пол:

Стаж: 2 года

Сообщений: 7741



Награды: Нет

Торрент-статистика

Создавать темы 25-Дек-2015 00:19

[Цитировать]

Злобный тип / The Vicious Kind
Страна: США
Жанр: драма, комедия
Год выпуска: 2009
Продолжительность: 01:31:50
Перевод: Профессиональный (многоголосый закадровый) - 1 ТВЧ
Cубтитры: нет

Режиссер: Ли Толанд Кригер / Lee Toland Krieger
В ролях: Адам Скотт, Бриттани Сноу, Алекс Фрост, Дж.К. Симмонс, Витторио Брам, Билл Бюэлл, Алисия Райнер, Кейт Кригер, Джордан Берков, Энн Гилл, Джим Форд, Ребекка Никеас, Роберт Бизик
Описание: Калеб — строительный рабочий из провинциального американского городка. Тяжело переживая разрыв отношения со своей давней подругой, Калеб озлобляется на весь мир в целом и на женщин в частности. Поэтому когда в город на день благодарения приезжает его брат со своей девушкой Эммой, он полагает о ней самое худшее и решает помешать их отношениям…
Качество видео: WEB-DLRip
Формат видео: AVI
Видео: 688x288 (2.39:1), 23.976 fps, XviD build 73 ~993 kbps avg, 0.21 bit/pixel
Аудио: 48 kHz, MPEG Layer 3, 2 ch, ~128.00 kbps avg

MediaInfo

Общее
Полное имя : H:\The.Vicious.Kind.2009.web-dlrip_[745]_[teko].avi
Формат : AVI
Формат/Информация : Audio Video Interleave
Размер файла : 743 Мбайт
Продолжительность : 1 ч. 31 м.
Общий поток : 1131 Кбит/сек
Программа кодирования : VirtualDubMod 1.5.10.3 | www.virtualdub-fr.org || (build 2550/release)
Библиотека кодирования : VirtualDubMod build 2550/release
Видео
Идентификатор : 0
Формат : MPEG-4 Visual
Профиль формата : Advanced Simple@L5
Параметр BVOP формата : 2
Параметр QPel формата : Нет
Параметр GMC формата : Без точки перехода
Параметр матрицы формата : Выборочная
Идентификатор кодека : XVID
Идентификатор кодека/Подсказка : XviD
Продолжительность : 1 ч. 31 м.
Битрейт : 994 Кбит/сек
Ширина : 688 пикселей
Высота : 288 пикселей
Соотношение сторон : 2,40:1
Частота кадров : 23,976 кадра/сек
Цветовое пространство : YUV
Субдискретизация насыщенности : 4:2:0
Битовая глубина : 8 бит
Тип развёртки : Прогрессивная
Метод сжатия : С потерями
Бит/(Пиксели*Кадры) : 0.209
Размер потока : 653 Мбайт (88%)
Библиотека кодирования : XviD 73
Аудио
Идентификатор : 1
Формат : MPEG Audio
Версия формата : Version 1
Профиль формата : Layer 3
Идентификатор кодека : 55
Идентификатор кодека/Подсказка : MP3
Продолжительность : 1 ч. 31 м.
Вид битрейта : Постоянный
Битрейт : 128 Кбит/сек
Каналы : 2 канала
Частота : 48,0 КГц
Метод сжатия : С потерями
Размер потока : 84,0 Мбайт (11%)
Выравнивание : Соединение по промежуткам
Продолжительность промежутка : 42 мс. (1,00 видеокадр)
Время предзагрузки промежутка : 504 мс.
Библиотека кодирования : LAME3.98r
Настройки программы : -m s -V 4 -q 2 -lowpass 17 -b 128
Релиз группы:
--
[Профиль] [ЛС]

Создавать темы 12-Июн-2016 07:56 (спустя 5 месяцев 18 дней)

Топик был перенесен из форума Фильмы 2011 года в форум Фильмы 2009 года
Russian Mafia
 
Кто просматривает тему:

Показать сообщения:    

Текущее время: Сегодня 23:33

Часовой пояс: GMT



Вы не можете начинать темы
Вы не можете отвечать на сообщения
Вы не можете редактировать свои сообщения
Вы не можете удалять свои сообщения
Вы не можете голосовать в опросах
Вы не можете прикреплять файлы к сообщениям
Вы не можете скачивать файлы