Зимний вечер в Гаграх (1985) HDTV [1080i]

 
Автор Сообщение

sergej644 ®

Пол:

Стаж: 4 года 11 месяцев

Сообщений: 6045

Откуда: Soviet Union



Награды: Нет

Торрент-статистика

Создавать темы 20-Июл-2014 20:50

[Цитировать]

-Зимний вечер в Гаграх (1985) HDTV [1080i]- Год выпуска: 1985
Жанр: Мьюзикл, Комедия, Мелодрама
Описание фильма:
Стремительный ритм, виртуозная и озорная импровизация — вот что такое чечетка.. Главный герой фильма, некогда знаменитый чечеточник, кумир публики, живет ныне скромно и незаметно. Он репетитор танцев в эстрадном коллективе, где блещут иные «звезды»…
И вдруг все меняется: к старому артисту словно возвращается молодость. Так подействовала на него встреча с несколько странным молодым человеком, который пришел со сломанной ногой и попросил, чтобы его ни много ни мало научили «бить степ»…
Режиссер: Карен Шахназаров
Актеры: Евгений Евстигнеев, Аркадий Насыров, Александр Панкратов-Черный, Наталья Гундарева, Сергей Никоненко, Петр Щербаков, Светлана Аманова, Анна Иванова, Георгий Бурков, Александр Ширвиндт и др.
Продолжительность: 01:25:02
Качество видео: HDTV

Видеокодек: MPEG-4 AVC/H.264
Битрейт видео: ~6882 Kbps
Размер кадра: 1920 x 1080
Аудиокодек: MP2, 2ch
Битрейт аудио: 192 Kbps

Важная информация!

Фильм записан с эфира канала Россия HD.
К сожалению в фильме есть 3 заметные точки склеивания. Склеить без артефактов мне не удалось. Если кто-то подскажет каким софтом можно качественно склеивать DVB TS, напишите мне в ПМ.

MediaInfo

General
Complete name : Zimniy.Ve4er.v.Gagrah.HDTVRip.mkv
Format : Matroska
Format version : Version 4 / Version 2
File size : 4.29 GiB
Duration : 1h 25mn
Overall bit rate : 7 218 Kbps
Writing application : mkvmerge v6.8.0 ('Theme for Great Cities') 64bit built on Mar 2 2014 21:34:26
Writing library : libebml v1.3.0 + libmatroska v1.4.1
Video
ID : 1
Format : AVC
Format/Info : Advanced Video Codec
Format profile : [url=mailto:High@L4.0]High@L4.0[/url]
Format settings, CABAC : Yes
Format settings, ReFrames : 3 frames
Codec ID : V_MPEG4/ISO/AVC
Duration : 1h 25mn
Bit rate : 6 882 Kbps
Width : 1 920 pixels
Height : 1 080 pixels
Display aspect ratio : 16:9
Frame rate mode : Constant
Frame rate : 25.000 fps
Standard : Component
Color space : YUV
Chroma subsampling : 4:2:0
Bit depth : 8 bits
Scan type : MBAFF
Bits/(Pixel*Frame) : 0.133
Stream size : 4.09 GiB (95%)
Default : Yes
Forced : No
Color primaries : BT.709
Transfer characteristics : BT.709
Matrix coefficients : BT.709
Audio
ID : 2
Format : MPEG Audio
Format version : Version 1
Format profile : Layer 2
Codec ID : A_MPEG/L2
Codec ID/Hint : MP2
Duration : 1h 25mn
Bit rate mode : Constant
Bit rate : 192 Kbps
Channel(s) : 2 channels
Sampling rate : 48.0 KHz
Compression mode : Lossy
Delay relative to video : -16ms
Stream size : 117 MiB (3%)
Default : Yes
Forced : No
Скриншоты:
[Профиль] [ЛС]

Создавать темы 06-Авг-2015 22:05 (спустя 1 год)

Топик был перенесен из форума Кино СССР в форум Фильмы (HD Rips | 720p, 1080p)
sergej644
 
Показать сообщения:    

Текущее время: Сегодня 06:07

Часовой пояс: GMT



Вы не можете начинать темы
Вы не можете отвечать на сообщения
Вы не можете редактировать свои сообщения
Вы не можете удалять свои сообщения
Вы не можете голосовать в опросах
Вы не можете прикреплять файлы к сообщениям
Вы не можете скачивать файлы