Зильс-Мария / Clouds of Sils Maria (2014) BDRip 1080p | P

 
Автор Сообщение

sergej644 ®

Пол:

Стаж: 4 года 11 месяцев

Сообщений: 6046

Откуда: Soviet Union



Награды: Нет

Торрент-статистика

Создавать темы 16-Фев-2015 18:41

[Цитировать]

Информация о фильме
Название: Зильс-Мария
Оригинальное название: Clouds of Sils Maria
Год выхода: 2014
Жанр: Драма
Режиссер: Оливье Ассайас / Olivier Assayas
В ролях: Жюльетт Бинош, Кристен Стюарт, Хлоя Грейс Морец, Ларс Эйдингер, Джонни Флинн, Ангела Винклер, Ханнс Цишлер, Нора фон Вальдштеттен, Брэйди Кор
О фильме:
В восемнадцать лет Мария Эндерс с успехом дебютировала в пьесе MalojaSnake. Она исполнила роль Сигрид, амбициозной девушки с непреодолимым обаянием, которая сначала очаровала, а потом довела до самоубийства взрослую женщину по имени Элена. Эта роль изменила ее жизнь. Более двадцати лет спустя, на пике славы, Марию приглашают в Цюрих на церемонию вручения престижной награды от имени автора и режиссера, которому она обязана своим ранним признанием, Вильгельма Мельхиора, живущего ныне отшельником в швейцарской деревне Зильс Мария. Но неожиданная смерть последнего за несколько часов до церемонии погружает Марию Эндерс в круговорот времени, прошлое, которое никогда не спит, возвращается…
Доп. информация: За предоставленный Blu-Ray диск благодарность 'L.
Страна: Франция, Швейцария, Германия
Студия: Arte France, arte France Cinéma, CAB Productions, Canal+ [fr]
Продолжительность: 02:03:31
Перевод: Профессиональный (многоголосый закадровый)
Файл
Кодек: x264
Качество: BDRip 1080p
Видео: MPEG-4 AVC, 8267 Кбит/с, 1920x800, 24,000 fps
Звук:
Аудио: Rus, AC3, 384 kb/s (2 ch), 48 kHz
Аудио 2: Eng, DTS, 1510 kb/s (6 ch), 48 kHz
Субтитры: английские

MediaInfo

x264 [info]: frame I:1057 Avg QP:18.69 size:170797
x264 [info]: frame P:34475 Avg QP:20.23 size: 77950
x264 [info]: frame B:142333 Avg QP:22.69 size: 34982
Format : Matroska
Format version : Version 4 / Version 2
File size : 8.94 GiB
Duration : 2h 3mn
Overall bit rate : 10.4 Mbps
Movie name : Tonik
Encoded date : UTC 2015-02-05 05:42:53
Writing application : mkvmerge v7.1.0 ('Good Love') 64bit built on Jul 27 2014 13:06:55
Writing library : libebml v1.3.0 + libmatroska v1.4.1
_STATISTICS_WRITING_APP : mkvmerge v7.1.0 ('Good Love') 64bit built on Jul 27 2014 13:06:55
_STATISTICS_WRITING_DATE_UTC : 2015-02-05 05:42:53
_STATISTICS_TAGS : BPS DURATION NUMBER_OF_FRAMES NUMBER_OF_BYTES
DURATION : 01:58:22.376000000
NUMBER_OF_FRAMES : 1602
NUMBER_OF_BYTES : 45327
Video
ID : 1
Format : AVC
Format/Info : Advanced Video Codec
Format profile : High@L4.1
Format settings, CABAC : Yes
Format settings, ReFrames : 5 frames
Codec ID : V_MPEG4/ISO/AVC
Duration : 2h 3mn
Bit rate : 8 267 Kbps
Width : 1 920 pixels
Height : 800 pixels
Display aspect ratio : 2.40:1
Frame rate mode : Constant
Frame rate : 24.000 fps
Color space : YUV
Chroma subsampling : 4:2:0
Bit depth : 8 bits
Scan type : Progressive
Bits/(Pixel*Frame) : 0.224
Stream size : 7.13 GiB (80%)
Title : Tonik
Writing library : x264 core 144 r2525 40bb568
Encoding settings : cabac=1 / ref=5 / deblock=1:-3:-3 / analyse=0x3:0x133 / me=umh / subme=11 / psy=1 / psy_rd=1.00:0.00 / mixed_ref=1 / me_range=48 / chroma_me=1 / trellis=2 / 8x8dct=1 / cqm=0 / deadzone=21,11 / fast_pskip=0 / chroma_qp_offset=-2 / threads=12 / lookahead_threads=2 / sliced_threads=0 / nr=0 / decimate=1 / interlaced=0 / bluray_compat=0 / constrained_intra=0 / bframes=9 / b_pyramid=2 / b_adapt=2 / b_bias=0 / direct=1 / weightb=1 / open_gop=0 / weightp=2 / keyint=250 / keyint_min=24 / scenecut=40 / intra_refresh=0 / rc=crf / mbtree=0 / crf=20.4 / qcomp=0.60 / qpmin=0 / qpmax=69 / qpstep=4 / ip_ratio=1.40 / pb_ratio=1.30 / aq=1:1.00
Language : English
Default : Yes
Forced : No
DURATION : 02:03:31.042000000
NUMBER_OF_FRAMES : 177865
NUMBER_OF_BYTES : 7846944096
_STATISTICS_WRITING_APP : mkvmerge v7.1.0 ('Good Love') 64bit built on Jul 27 2014 13:06:55
_STATISTICS_WRITING_DATE_UTC : 2015-02-05 05:42:53
_STATISTICS_TAGS : BPS DURATION NUMBER_OF_FRAMES NUMBER_OF_BYTES
Audio #1
ID : 2
Format : AC-3
Format/Info : Audio Coding 3
Mode extension : CM (complete main)
Format settings, Endianness : Big
Codec ID : A_AC3
Duration : 2h 3mn
Bit rate mode : Constant
Bit rate : 384 Kbps
Channel(s) : 2 channels
Channel positions : Front: L R
Sampling rate : 44.1 KHz
Bit depth : 16 bits
Compression mode : Lossy
Stream size : 339 MiB (4%)
Language : Russian
Default : Yes
Forced : No
Audio #2
ID : 3
Format : DTS
Format/Info : Digital Theater Systems
Mode : 16
Format settings, Endianness : Big
Codec ID : A_DTS
Duration : 2h 3mn
Bit rate mode : Constant
Bit rate : 1 509 Kbps
Channel(s) : 6 channels
Channel positions : Front: L C R, Side: L R, LFE
Sampling rate : 48.0 KHz
Bit depth : 16 bits
Compression mode : Lossy
Stream size : 1.30 GiB (15%)
Language : English
Default : No
Forced : No
Text
ID : 4
Format : UTF-8
Codec ID : S_TEXT/UTF8
Codec ID/Info : UTF-8 Plain Text
Language : English
Default : No
Forced : No
Menu
00:00:00.000 : en:00:00:00.000
00:10:23.125 : en:00:10:23.125
00:18:29.333 : en:00:18:29.333
00:23:49.333 : en:00:23:49.333
00:35:39.583 : en:00:35:39.583
00:41:56.417 : en:00:41:56.417
00:51:09.333 : en:00:51:09.333
01:00:44.583 : en:01:00:44.583
01:06:04.750 : en:01:06:04.750
01:14:34.750 : en:01:14:34.750
01:22:41.167 : en:01:22:41.167
01:27:05.625 : en:01:27:05.625
01:36:43.833 : en:01:36:43.833
01:41:53.333 : en:01:41:53.333
01:53:03.917 : en:01:53:03.917
02:00:10.083 : en:02:00:10.083

Скриншоты

[Профиль] [ЛС]
Показать сообщения:    

Текущее время: Сегодня 20:47

Часовой пояс: GMT



Вы не можете начинать темы
Вы не можете отвечать на сообщения
Вы не можете редактировать свои сообщения
Вы не можете удалять свои сообщения
Вы не можете голосовать в опросах
Вы не можете прикреплять файлы к сообщениям
Вы не можете скачивать файлы