Зерно правды / Ziarno prawdy (Борис Ланкош / Borys Lankosz) [2015, Польша, триллер, криминал, DVDRip] DVO (Den904 & DeadSno)

 
Автор Сообщение

TorrentFilm ®

Пол:

Стаж: 2 года

Сообщений: 7741



Награды: Нет

Торрент-статистика

Создавать темы 11-Сен-2015 00:05

[Цитировать]

Зерно правды / Ziarno prawdy
Страна: Польша
Жанр: триллер, криминал
Год выпуска: 2015
Продолжительность: 01:46:13-Перевод: Любительский (двухголосый закадровый), Den904 & DeadSno
Cубтитры: нет
Режиссер: Борис Ланкош / Borys Lankosz-В ролях: Роберт Венцкевич, Ежи Треля, Магдалена Валах, Александра Хамкало, Йоанна Сыдор-Клепацка, Кшиштоф Печиньский, Анджей Зелиньски, Зохар Штраусс, Модест Русинский, Ивона Бельска-Описание: Прокурор Теодор Шацкий разводится с женой и уезжает из Варшавы в небольшой живописный городок на юго-востоке Польши — Сандомеж. Спустя некоторое время ему поручают расследование странного и таинственного дела, теснопереплетенного со средневековой легендой. Но в каждой легенде есть свое зерно правды…-Сэмпл: http://sendfile.su/1152417
Качество видео: DVDRip
Формат видео: AVI
Видео: XVID, 720х304, 2,35:1, 25,000 кадров/сек, 752 Кбит/сек
Аудио: AC-3, 48,0 КГц, 192 Кбит/сек, 2 канала Front: L R

MediaInfo

Формат : AVI
Формат/Информация : Audio Video Interleave
Размер файла : 724 Мбайт
Продолжительность : 1 ч. 46 м.
Общий поток : 954 Кбит/сек
Программа кодирования : VirtualDubMod 1.5.10.2 (build 2540/release)
Библиотека кодирования : VirtualDubMod build 2540/release
Видео
Идентификатор : 0
Формат : MPEG-4 Visual
Профиль формата : Advanced Simple@L5
Параметр BVOP формата : 1
Параметр QPel формата : Нет
Параметр GMC формата : Без точки перехода
Параметр матрицы формата : Default (MPEG)
Идентификатор кодека : XVID
Идентификатор кодека/Подсказка : XviD
Продолжительность : 1 ч. 46 м.
Битрейт : 752 Кбит/сек
Ширина : 720 пикселей
Высота : 304 пикселя
Соотношение сторон : 2,35:1
Частота кадров : 25,000 кадров/сек
Цветовое пространство : YUV
Субдискретизация насыщенности : 4:2:0
Битовая глубина : 8 бит
Тип развёртки : Прогрессивная
Метод сжатия : С потерями
Бит/(Пиксели*Кадры) : 0.137
Размер потока : 571 Мбайт (79%)
Библиотека кодирования : XviD 1.2.1 (UTC 2008-12-04)
Аудио
Идентификатор : 1
Формат : AC-3
Формат/Информация : Audio Coding 3
Расширение режима : CM (complete main)
Параметр Endianness формата : Big
Идентификатор кодека : 2000
Продолжительность : 1 ч. 46 м.
Вид битрейта : Постоянный
Битрейт : 192 Кбит/сек
Каналы : 2 канала
Расположение каналов : Front: L R
Частота : 48,0 КГц
Метод сжатия : С потерями
Размер потока : 146 Мбайт (20%)
Выравнивание : Разделение по промежуткам
Продолжительность промежутка : 40 мс. (1,00 видеокадр)
Время предзагрузки промежутка : 500 мс.

Скриншот c названием фильма

Скриншоты





[Профиль] [ЛС]
Показать сообщения:    

Текущее время: Сегодня 01:08

Часовой пояс: GMT



Вы не можете начинать темы
Вы не можете отвечать на сообщения
Вы не можете редактировать свои сообщения
Вы не можете удалять свои сообщения
Вы не можете голосовать в опросах
Вы не можете прикреплять файлы к сообщениям
Вы не можете скачивать файлы