Зеркальная война / The Looking Glass War (1970) DVDRip | Р

 
Автор Сообщение

Swager ®

Пол:

Стаж: 2 года 2 месяца

Сообщений: 1368



Награды: 4 (Подробнее)

Mega Seeder 2 (Количество: 1) Mega Seeder 1 (Количество: 1) Top Releaser 2 (Количество: 1)
Торрент-статистика

Создавать темы 11-Окт-2017 10:59

[Цитировать]

Зеркальная война / The Looking Glass War
Страна: Великобритания
Производство: Columbia Pictures Corporation, Frankovich Productions
Год выпуска: 1970
Жанр: боевик, триллер, драма
Продолжительность: 01:42:52
Режиссер: Фрэнк Пирсон
Авторы сценария: Фрэнк Пирсон, Джон ле Карре
В ролях: Кристофер Джонс, Пиа Дегермарк, Ральф Ричардсон, Пол Роджерс, Энтони Хопкинс, Сьюзен Джордж, Рэй МакЭнэлли, Роберт Эркарт
Описание: Молодой поляк сбежал с корабля, чтобы попросить политического убежища в Англии. На парня сразу же насели спецслужбы и вот он уже едет в Восточную Германию, чтобы проверить истинность одного странного фотоснимка, запечатлевшего ракеты там, где их быть не должно. Он входит в игру. Игру без кавычек. Профессиональным разведчикам и Запада, и Востока, как выясняется, нет дела до парня, фотоснимка, ракет и прочей политики. Их интересует только победа в игре: кто кого перехитрит? Шахматы, одним словом. А люди — пешки…

Перевод: Профессиональный (многоголосый, закадровый)
Субтитры: нет-Качество: DVDRip | исходник The Looking Glass War [Le Carré] [UK] [1969 DVD-R-CG]
Формат: AVI
Видео кодек: XviD
Аудио кодек: АС3
Видео: 720x304 (2.35:1), 25.000 fps, XviD ~1 800 kbps avg
Аудио: 48.0 kHz, AC3 Dolby Digital, 2/0 (L,R) ch, ~192 kbps
Дата премьеры (мир): 28 января 1970
Релиз от: edich2

Media Info

General
Format : AVI
Format/Info : Audio Video Interleave
File size : 1.44 GiB
Duration : 1h 42mn
Overall bit rate : 2 001 Kbps
Movie name : Зеркальная война - The Looking Glass War
Writing application : VirtualDubMod 1.5.10.2 (build 2540/release)
Video
ID : 0
Format : MPEG-4 Visual
Format profile : Advanced Simple@L5
Format settings, BVOP : 2
Format settings, QPel : No
Format settings, GMC : No warppoints
Format settings, Matrix : Custom
Codec ID : XVID
Codec ID/Hint : XviD
Duration : 1h 42mn
Bit rate : 1 800 Kbps
Width : 720 pixels
Height : 304 pixels
Display aspect ratio : 2.35:1
Frame rate : 25.000 fps
Color space : YUV
Chroma subsampling : 4:2:0
Bit depth : 8 bits
Scan type : Progressive
Compression mode : Lossy
Bits/(Pixel*Frame) : 0.329
Stream size : 1.29 GiB (90%)
Writing library : XviD 1.2.1 (UTC 2008-12-04)
Audio
ID : 1
Format : AC-3
Format/Info : Audio Coding 3
Mode extension : CM (complete main)
Format settings, Endianness : Big
Codec ID : 2000
Duration : 1h 42mn
Bit rate mode : Constant
Bit rate : 192 Kbps
Channel(s) : 2 channels
Channel positions : Front: L R
Sampling rate : 48.0 KHz
Bit depth : 16 bits
Compression mode : Lossy
Delay relative to video : 24ms
Stream size : 141 MiB (10%)
Alignment : Split accross interleaves
Interleave, duration : 40 ms (1.00 video frame)
Interleave, preload duration : 500 ms

Скриншоты

[Профиль] [ЛС]
Показать сообщения:    

Текущее время: Сегодня 19:01

Часовой пояс: GMT



Вы не можете начинать темы
Вы не можете отвечать на сообщения
Вы не можете редактировать свои сообщения
Вы не можете удалять свои сообщения
Вы не можете голосовать в опросах
Вы не можете прикреплять файлы к сообщениям
Вы не можете скачивать файлы