Зеркало ведьмы / Manyeobogam [S01] (2016) HDTVRip 720p | SoftBox

 
Автор Сообщение

достали все ®

Пол:

Стаж: 1 год 8 месяцев

Сообщений: 6571



Награды: 12 (Подробнее)

Mega Releaser 3 (Количество: 1) Mega Seeder 3 (Количество: 1) Mega Seeder 5 (Количество: 1)
Торрент-статистика

Создавать темы 19-Июл-2016 17:19

[Цитировать]

Зеркало ведьмы / Manyeobogam
Страна: Южная Корея
Год выпуска: 2016
Жанр: фэнтези, драма, история
Сезон: 1
Продолжительность: 20х ~01:05:00
Режиссер: Хун Так Жо
В ролях: Ким Сэ-рон, Юн Ши Юн, Чан Хи-джин, Чон Ми-сон, Чо Даль-хван, Квак Щи-ян, Ли Сон-джэ, Мун Га-ён
Описание: Со Ри родилась во дворце и должна была стать принцессой, но из-за жуткого проклятья, которое наложила на королевскую семью шаманка, она превратилась в ведьму. Девушка обрела сверхъестественные силы, которые не может контролировать, и из-за этого она приносит беды окружающим и себе. В поисках способа снять проклятье Со Ри встречает лекаря Хо Джуна...

Перевод: Любительский (двухголосый, закадровый) | SoftBox
Субтитры: нет-Качество: HDTVRip 720p
Формат: МР4
Видео кодек: AVC
Аудио кодек: AAC
Видео: 1280x720 (16:9), 29.970 fps, MPEG-4 AVC ~2 000 kbps avg
Аудио: 44.1 kHz, Advanced Audio Codec LC, 2/0 (L,R) ch, ~192 kbps | RUS
Дата премьеры (мир): 13 мая 2016

Media Info

General
Complete name : [Озвучка SoftBox] Зеркало ведьмы[Озвучка SoftBox] Зеркало ведьмы 09 серия 720p.mp4
Format : MPEG-4
Format profile : Base Media / Version 2
Codec ID : mp42
File size : 1 007 MiB
Duration : 1h 4mn
Overall bit rate mode : Variable
Overall bit rate : 2 189 Kbps
Movie name : Дорама
Encoded date : UTC 2016-06-11 14:19:47
Tagged date : UTC 2016-06-11 14:36:54
Video
ID : 2
Format : AVC
Format/Info : Advanced Video Codec
Format profile : High@L3.1
Format settings, CABAC : Yes
Format settings, ReFrames : 2 frames
Format settings, GOP : M=2, N=30
Codec ID : avc1
Codec ID/Info : Advanced Video Coding
Duration : 1h 4mn
Bit rate mode : Variable
Bit rate : 1 998 Kbps
Maximum bit rate : 768 Kbps
Width : 1 280 pixels
Height : 720 pixels
Display aspect ratio : 16:9
Frame rate mode : Constant
Frame rate : 29.970 fps
Original frame rate : 25.000 fps
Color space : YUV
Chroma subsampling : 4:2:0
Bit depth : 8 bits
Scan type : Progressive
Bits/(Pixel*Frame) : 0.072
Stream size : 919 MiB (91%)
Title : Core Media Video
Encoded date : UTC 2016-06-11 14:19:47
Tagged date : UTC 2016-06-11 14:36:54
Color range : Limited
Color primaries : BT.709
Transfer characteristics : BT.709
Matrix coefficients : BT.709
Audio
ID : 1
Format : AAC
Format/Info : Advanced Audio Codec
Format profile : LC
Codec ID : 40
Duration : 1h 4mn
Source duration : 1h 4mn
Bit rate mode : Constant
Bit rate : 192 Kbps
Channel(s) : 2 channels
Channel positions : Front: L R
Sampling rate : 44.1 KHz
Compression mode : Lossy
Stream size : 85.6 MiB (9%)
Source stream size : 85.6 MiB (9%)
Title : Core Media Audio
Language : Russian
Encoded date : UTC 2016-06-11 14:19:47
Tagged date : UTC 2016-06-11 14:36:54

Скриншоты

[Профиль] [ЛС]
Показать сообщения:    

Текущее время: Сегодня 02:25

Часовой пояс: GMT



Вы не можете начинать темы
Вы не можете отвечать на сообщения
Вы не можете редактировать свои сообщения
Вы не можете удалять свои сообщения
Вы не можете голосовать в опросах
Вы не можете прикреплять файлы к сообщениям
Вы не можете скачивать файлы