Зеркала (2013) WEB-DL 1080p | iTunes

 
Автор Сообщение

BOSS ®

Пол:

Стаж: 2 года 1 месяц

Сообщений: 3735

Откуда: ODESSA



Награды: 20 (Подробнее)

Top Releaser 4 (Количество: 1) Mega Releaser 2 (Количество: 1) Top Keeper 3 (Количество: 1)
Торрент-статистика

Создавать темы 29-Сен-2015 11:57

[Цитировать]

Оригинальное название: Зеркала
Год выпуска: 2013
Жанр: Драма, биография, исторический
Выпущено: Россия, CineLab Production
Режиссер: Марина Мигунова
В ролях: Виктория Исакова, Роман Полянский, Виктор Добронравов, Александра Мошкова, Евгений Князев, Игорь Письменный, Владимир Сычёв, Наталия Куликова, Иван Суханов, Лидия Арефьева
О фильме: Лето. Крым. Последние годы перед революцией. Молодая Марина Цветаева встречает гимназиста Сергея Эфрона. И только она знает, что эти отношения оба пронесут через всю свою жизнь. Действие фильма происходит в разных странах и городах — в Москве, Париже, Праге и Коктебеле. На фоне эпохальных событий в мире развивается чувственная история отношений мужчины и женщины. «Зеркала» — это отражения великой Цветаевой в ее возлюбленных — муже и любовниках.

Качество: WEB-DL 1080p
Видео: MPEG-4 AVC, 4985 Кбит/с, 1920x1036, 24 кадр/с
Аудио: АС3, 6 ch, 384 Кбит/с
Продолжительность: 02:17:30
Язык: Русский

Скриншоты

MediaInfo

Общее
Уникальный идентификатор : 221387983174833728505778643910013718949 (0xA68DC64CFF66591E9BCF59A15B2791A5)
Полное имя : C:киноMRRRS_2013_WEB-DL_1080p-BLUEBIRD.mkv
Формат : Matroska
Версия формата : Version 4 / Version 2
Размер файла : 5,26 Гбайт
Продолжительность : 2 ч. 17 м.
Общий поток : 5478 Кбит/сек
Название фильма : Mirrors_2013_WEB-DL_1080p-BLUEBIRD
Дата кодирования : UTC 2015-09-28 17:36:18
Программа кодирования : mkvmerge v8.2.0 ('World of Adventure') 32bit
Библиотека кодирования : libebml v1.3.1 + libmatroska v1.4.2
DURATION : 02:17:29.824000000
NUMBER_OF_FRAMES : 257807
NUMBER_OF_BYTES : 395991552
_STATISTICS_WRITING_APP : mkvmerge v8.2.0 ('World of Adventure') 32bit
_STATISTICS_WRITING_DATE_UTC : 2015-09-28 17:36:18
_STATISTICS_TAGS : BPS DURATION NUMBER_OF_FRAMES NUMBER_OF_BYTES
Видео
Идентификатор : 1
Формат : AVC
Формат/Информация : Advanced Video Codec
Профиль формата : High@L4.0
Параметр CABAC формата : Да
Параметр ReFrames формата : 4 кадра
Идентификатор кодека : V_MPEG4/ISO/AVC
Продолжительность : 2 ч. 17 м.
Битрейт : 4985 Кбит/сек
Ширина : 1920 пикселей
Высота : 1036 пикселей
Соотношение сторон : 1,85:1
Режим частоты кадров : Постоянный
Частота кадров : 24,000 кадра/сек
Цветовое пространство : YUV
Субдискретизация насыщенности : 4:2:0
Битовая глубина : 8 бит
Тип развёртки : Прогрессивная
Бит/(Пиксели*Кадры) : 0.104
Размер потока : 4,79 Гбайт (91%)
Заголовок : Mirrors_2013_Marina Migunova
Язык : Russian
Default : Да
Forced : Нет
Основные цвета : BT.709
Характеристики трансфера : BT.709
Коэффициенты матрицы : BT.709
Аудио
Идентификатор : 2
Формат : AC-3
Формат/Информация : Audio Coding 3
Расширение режима : CM (complete main)
Параметр Endianness формата : Big
Идентификатор кодека : A_AC3
Продолжительность : 2 ч. 17 м.
Вид битрейта : Постоянный
Битрейт : 384 Кбит/сек
Каналы : 6 каналов
Расположение каналов : Front: L C R, Side: L R, LFE
Частота : 48,0 КГц
Битовая глубина : 16 бит
Метод сжатия : С потерями
Задержка видео : 42 мс.
Размер потока : 378 Мбайт (7%)
Язык : Russian
Default : Да
Forced : Нет
Меню
00:00:00.000 : en:01
00:05:00.000 : en:02
00:10:08.000 : en:03
00:13:07.000 : en:04
00:18:57.000 : en:05
00:22:58.000 : en:06
00:30:29.000 : en:07
00:33:54.000 : en:08
00:40:59.000 : en:0
00:48:54.000 : en:10
00:53:43.000 : en:11
00:58:00.000 : en:12
01:02:59.000 : en:13
01:10:11.000 : en:14
01:14:38.000 : en:15
01:19:03.000 : en:16
01:25:04.000 : en:17
01:28:08.000 : en:18
01:34:20.000 : en:19
01:39:42.000 : en:20
01:43:47.000 : en:21
01:49:06.000 : en:22
01:56:21.000 : en:23
02:01:08.000 : en:24
02:07:05.000 : en:25
[Профиль] [ЛС]
Показать сообщения:    

Текущее время: Сегодня 14:27

Часовой пояс: GMT



Вы не можете начинать темы
Вы не можете отвечать на сообщения
Вы не можете редактировать свои сообщения
Вы не можете удалять свои сообщения
Вы не можете голосовать в опросах
Вы не можете прикреплять файлы к сообщениям
Вы не можете скачивать файлы