Зеркала (Марина Мигунова) [2013, Россия, драма, биография, история, HDTV 1080i] + Original Rus

 
Автор Сообщение

TorrentFilm ®

Пол:

Стаж: 2 года

Сообщений: 7741



Награды: Нет

Торрент-статистика

Создавать темы 26-Мар-2015 00:02

[Цитировать]

Зеркала
Страна: Россия
Студия: СинеЛаб Продакшн
Жанр: драма, биография, история
Год выпуска: 2013
Продолжительность: 02:11:49
Перевод: Не требуется
Cубтитры: нет
Оригинальная аудиодорожка: русский
Режиссер: Марина Мигунова
В ролях: Виктория Исакова, Роман Полянский, Виктор Добронравов, Александра Мошкова, Евгений Князев, Игорь Письменный,Владимир Сычёв
Описание:
Лето. Крым. Последние годы перед революцией. Молодая Марина Цветаева встречает гимназиста Сергея Эфрона. И только она знает, что эти отношения оба пронесут через всю свою жизнь. Действие фильма происходит в разных странах и городах — в Москве, Париже, Праге и Коктебеле. На фоне эпохальных событий в мире развивается чувственная история отношений мужчины и женщины. «Зеркала» — это отражения великой Цветаевой в ее возлюбленных — муже и любовниках.

Дополнительно:
Призы и номинации
11-й Московский фестиваль отечественного кино «Московская премьера», конкурс «Великолепная семерка «МК»[3]:
-Главный приз жюри газеты «Московский комсомолец»
-Приз за лучшую женскую роль имени Натальи Гундаревой – Виктории Исаковой
-Номинация на премию «Золотой орёл» за лучшую музыку к фильму — Алексей Айги
-Номинации на премию «Ника» за лучшую женскую роль (Виктория Исакова) и лучшую музыку к фильму (Алексей Айги).
-Номинация на премию киноизобразительного искусства «Белый квадрат» Гильдии кинооператоров России (Сергей Мачильский).
IV Забайкальский международный кинофестиваль (Чита):
-специальный приз жюри за операторскую работу — Сергею Мачильскому
-приз зрительских симпатий
Сэмпл: http://multi-up.com/1039335
Тип релиза: HDTV 1080i
Контейнер: MKV
Видео: AVC, 1920x1080, (16:9), 25 fps, 6.3 Mbps
Аудио 1: Русский, AC3, 48 kHz, 2 ch, 192 kbps
Аудио 2: Русский, MP2, 48 kHz, 2 ch, 192 kbps

MediaInfo

General
Unique ID : 195796411063450982605215190264698048394 (0x934D046120EDC9E0820BDA0D41870F8A)
Complete name : C:\Зеркала_2013_HDTV 1080i_RU.mkv
Format : Matroska
Format version : Version 4 / Version 2
File size : 6.24 GiB
Duration : 2h 11mn
Overall bit rate : 6 783 Kbps
Encoded date : UTC 2015-03-20 08:05:39
Writing application : mkvmerge v7.7.0 ('Six Voices') 64bit built on Feb 28 2015 23:39:33
Writing library : libebml v1.3.1 + libmatroska v1.4.2
DURATION : 02:11:49.008000000
NUMBER_OF_FRAMES : 329542
NUMBER_OF_BYTES : 189816192
_STATISTICS_WRITING_APP : mkvmerge v7.7.0 ('Six Voices') 64bit built on Feb 28 2015 23:39:33
_STATISTICS_WRITING_DATE_UTC : 2015-03-20 08:05:39
_STATISTICS_TAGS : BPS DURATION NUMBER_OF_FRAMES NUMBER_OF_BYTES
Video
ID : 1
Format : AVC
Format/Info : Advanced Video Codec
Format profile : High@L4.0
Format settings, CABAC : Yes
Format settings, ReFrames : 4 frames
Codec ID : V_MPEG4/ISO/AVC
Duration : 2h 11mn
Bit rate : 6 264 Kbps
Width : 1 920 pixels
Height : 1 080 pixels
Display aspect ratio : 16:9
Frame rate mode : Constant
Frame rate : 25.000 fps
Standard : Component
Color space : YUV
Chroma subsampling : 4:2:0
Bit depth : 8 bits
Scan type : Interlaced
Scan order : Top Field First
Bits/(Pixel*Frame) : 0.121
Stream size : 5.77 GiB (92%)
Default : Yes
Forced : No
Color primaries : BT.709
Transfer characteristics : BT.709
Matrix coefficients : BT.709
Color range : Limited
Audio #1
ID : 2
Format : AC-3
Format/Info : Audio Coding 3
Mode extension : CM (complete main)
Format settings, Endianness : Big
Codec ID : A_AC3
Duration : 2h 11mn
Bit rate mode : Constant
Bit rate : 192 Kbps
Channel(s) : 2 channels
Channel positions : Front: L R
Sampling rate : 48.0 KHz
Bit depth : 16 bits
Compression mode : Lossy
Stream size : 181 MiB (3%)
Language : Russian
Default : Yes
Forced : No
Audio #2
ID : 3
Format : MPEG Audio
Format version : Version 1
Format profile : Layer 2
Codec ID : A_MPEG/L2
Codec ID/Hint : MP2
Duration : 2h 11mn
Bit rate mode : Constant
Bit rate : 192 Kbps
Channel(s) : 2 channels
Sampling rate : 48.0 KHz
Compression mode : Lossy
Stream size : 181 MiB (3%)
Language : Russian
Default : No
Forced : No

Скриншоты

[Профиль] [ЛС]
Показать сообщения:    

Текущее время: Сегодня 02:45

Часовой пояс: GMT



Вы не можете начинать темы
Вы не можете отвечать на сообщения
Вы не можете редактировать свои сообщения
Вы не можете удалять свои сообщения
Вы не можете голосовать в опросах
Вы не можете прикреплять файлы к сообщениям
Вы не можете скачивать файлы