Зеркала / Mirrors (2008) BDRip 720p | Театральная версия / Theathrical Cut

 
Автор Сообщение

sergej644 ®

Пол:

Стаж: 4 года 11 месяцев

Сообщений: 6045

Откуда: Soviet Union



Награды: Нет

Торрент-статистика

Создавать темы 10-Фев-2015 09:23

[Цитировать]

Страна: США, Румыния, Германия, Испания, Франция
Жанр: ужасы, триллер, детектив
Год выпуска: 2008
Продолжительность: 01:51:12
Перевод: Профессиональный (полное дублирование) + Оригинальный
Субтитры: русские, английские.-Режиссер: Александр Ажа / Alexandre Aja-В ролях: Кифер Сазерленд (Ben Carson), Пола Пэттон (Amy Carson), Кэмерон Бойс (Michael Carson), Эрика Глюк (Daisy Carson), Эми Смарт (Angela Carson), Мэри Бет Пейл (Anna Esseker), Джон Шрэпнел (Lorenzo Sapelli), Джейсон Флеминг (Larry Byrne), Тим Ахерн (Dr. Morris), Джулиан Гловер (Robert Esseker), Джош Коул (Gary Lewis), Эзра Баззингтон (Terrence Berry)
Дублёры: Валерий Кухарешин (Ben Carson), Анна Геллер (Amy Carson), Ксения Синявская (Daisy Carson), Наталия Тарыничева (Angela Carson), Елена Павловская (Anna Esseker), Вадим Яковлев (Lorenzo Sapelli), Михаил Елисеев (Larry Byrne), Сергей Паршин (Dr. Morris), Марк Макаренков (Robert Esseker), Виктор Костецкий (Terrence Berry)-Описание: Бен Карсон знавал времена и получше. Уже прошел почти год с тех пор как неуравновешенного детектива отстранили от работы в Полицейском управлении г. Нью-Йорка за убийство другого сотрудника спецслужбы, несчастный случай, который не только стоил ему работы, но и пробудил в нем тягу к алкоголю и агрессивность, из-за чего жена и дети отдалились от него, а сам он нашел пристанище на диване в квартире своей сестры в Куинс. Потеряв надежду вернуться к нормальной жизни и воссоединиться с семьей, Карсон нанимается на работу ночным сторожем выгоревших руин универмага «Mayflower». То, что когда-то было символом процветания и роскоши, теперь медленно разрушается в темноте, как загнивающий корабль-призрак, разоренный гигантским пожаром, поглотившим множество невинных жизней. Когда Карсон обходит дозором свои владения, обугленные развалины универмага, он начинает замечать что-то зловещее в декоративных зеркалах, украшающих стены «Mayflower». В огромных мерцающих стеклах отражаются страшные, потрясающие Карсона образы...-
MPAA: R - Лицам до 17 лет обязательно присутствие взрослого-Семпл-Качество: BDRip
Контейнер: MKV
Видео: AVC, 1280x532 (2.40:1), 4733 kbps, 23,976 fps, 0,290 bpp
Аудио №1: русский / AC3 / 5.1 / 48 kHz / 448 kbps
Аудио №2: английский / AC3 / 5.1 / 48 kHz / 448 kbps
Навигация по главам: есть-

Media Info

Format : Matroska
Format version : Version 2
File size : 4.37 GiB
Duration : 1h 51mn
Overall bit rate : 5 627 Kbps
Movie name : = Зеркала / Mirrors BDRip 720p by SC Kosmos =
Encoded date : UTC 2014-09-28 06:56:20
Writing application : mkvmerge v3.3.0 ('Language') gebaut am Mar 24 2010 14:59:24
Writing library : libebml v0.8.0 + libmatroska v0.9.0
Video
ID : 1
Format : AVC
Format/Info : Advanced Video Codec
Format profile : High@L4.1
Format settings, CABAC : Yes
Format settings, ReFrames : 12 frames
Codec ID : V_MPEG4/ISO/AVC
Duration : 1h 51mn
Bit rate : 4 733 Kbps
Width : 1 280 pixels
Height : 532 pixels
Display aspect ratio : 2.40:1
Frame rate : 23.976 fps
Color space : YUV
Chroma subsampling : 4:2:0
Bit depth : 8 bits
Scan type : Progressive
Bits/(Pixel*Frame) : 0.290
Stream size : 3.59 GiB (82%)
Title : Зеркала / Mirrors BDRip 720p by SC Kosmos
Writing library : x264 core 142 r2479 dd79a61
Encoding settings : cabac=1 / ref=12 / deblock=1:-3:-3 / analyse=0x3:0x113 / me=umh / subme=11 / psy=1 / psy_rd=1.00:0.00 / mixed_ref=1 / me_range=32 / chroma_me=1 / trellis=2 / 8x8dct=1 / cqm=0 / deadzone=21,11 / fast_pskip=0 / chroma_qp_offset=-2 / threads=12 / lookahead_threads=1 / sliced_threads=0 / nr=0 / decimate=1 / interlaced=0 / bluray_compat=0 / constrained_intra=0 / bframes=14 / b_pyramid=2 / b_adapt=1 / b_bias=0 / direct=3 / weightb=1 / open_gop=0 / weightp=2 / keyint=240 / keyint_min=23 / scenecut=40 / intra_refresh=0 / rc_lookahead=40 / rc=2pass / mbtree=0 / bitrate=4733 / ratetol=1.0 / qcomp=0.60 / qpmin=0 / qpmax=69 / qpstep=4 / cplxblur=20.0 / qblur=0.5 / vbv_maxrate=50000 / vbv_bufsize=50000 / nal_hrd=none / filler=0 / ip_ratio=1.40 / pb_ratio=1.30 / aq=1:1.00 / zones=154060,159923,b=0.25
Language : English
Default : No
Forced : No
Audio #1
ID : 2
Format : AC-3
Format/Info : Audio Coding 3
Mode extension : CM (complete main)
Codec ID : A_AC3
Duration : 1h 51mn
Bit rate mode : Constant
Bit rate : 448 Kbps
Channel(s) : 6 channels
Channel positions : Front: L C R, Side: L R, LFE
Sampling rate : 48.0 KHz
Bit depth : 16 bits
Compression mode : Lossy
Stream size : 356 MiB (8%)
Title : Дубляж
Language : Russian
Default : Yes
Forced : No
Audio #2
ID : 3
Format : AC-3
Format/Info : Audio Coding 3
Mode extension : CM (complete main)
Codec ID : A_AC3
Duration : 1h 51mn
Bit rate mode : Constant
Bit rate : 448 Kbps
Channel(s) : 6 channels
Channel positions : Front: L C R, Side: L R, LFE
Sampling rate : 48.0 KHz
Bit depth : 16 bits
Compression mode : Lossy
Stream size : 356 MiB (8%)
Language : English
Default : No
Forced : No
Text #1
ID : 4
Format : UTF-8
Codec ID : S_TEXT/UTF8
Codec ID/Info : UTF-8 Plain Text
Language : Russian
Default : Yes
Forced : No
Text #2
ID : 5
Format : UTF-8
Codec ID : S_TEXT/UTF8
Codec ID/Info : UTF-8 Plain Text
Language : English
Default : No
Forced : No
Menu
00:00:00.000 : en:00:00:00.000
00:05:00.000 : en:00:05:00.000
00:10:00.000 : en:00:10:00.000
00:15:00.000 : en:00:15:00.000
00:20:00.000 : en:00:20:00.000
00:25:00.000 : en:00:25:00.000
00:30:00.000 : en:00:30:00.000
00:35:00.000 : en:00:35:00.000
00:40:00.000 : en:00:40:00.000
00:45:00.000 : en:00:45:00.000
00:50:00.000 : en:00:50:00.000
00:55:00.000 : en:00:55:00.000
01:00:00.000 : en:01:00:00.000
01:05:00.000 : en:01:05:00.000
01:10:00.000 : en:01:10:00.000
01:15:00.000 : en:01:15:00.000
01:20:00.000 : en:01:20:00.000
01:25:00.000 : en:01:25:00.000
01:30:00.000 : en:01:30:00.000
01:35:00.000 : en:01:35:00.000
01:40:00.000 : en:01:40:00.000
01:45:00.000 : en:01:45:00.000
01:50:00.000 : en:01:50:00.000
-

Скриншоты


[Профиль] [ЛС]
Показать сообщения:    

Текущее время: Сегодня 00:20

Часовой пояс: GMT



Вы не можете начинать темы
Вы не можете отвечать на сообщения
Вы не можете редактировать свои сообщения
Вы не можете удалять свои сообщения
Вы не можете голосовать в опросах
Вы не можете прикреплять файлы к сообщениям
Вы не можете скачивать файлы