Земля. Территория загадок (2 выпуска)[2014, Документальный цикл, познавательный, HDTV 1080i, RU]

 
Автор Сообщение

TorrentFilm ®

Пол:

Стаж: 2 года

Сообщений: 7741



Награды: Нет

Торрент-статистика

Создавать темы 12-Фев-2015 00:01

[Цитировать]

Земля. Территория загадок
Год выпуска: 2014
Страна: Россия
Студия: Телезнак ТВ
Жанр: Документальный цикл, познавательный
Продолжительность: 00:23:20
Перевод: Не требуется
Русские субтитры: нет
Описание:
Мы попытаемся разгадать самые сложные загадки планеты Земля.
11.02.2015 _ добавил: 03. Бермудская ловушка,
перезаливаем

01. Высота 6666. Легенды горы Кайлас

На западе Тибетского нагорья находится удивительная гора с четко выраженной пирамидальной формой

02. Неразгаданная тайна Тунгуски

Тридцатого июня 1908 года около села Ванавара произошел взрыв мощностью в 50 мегатонн

03. Бермудская ловушка

В этом выпуске программы «Земля.Территория загадок» вы узнаете, почему ученым до сих пор не удается разгадать тайну Бермудского треугольника и сколько человек стали его жертвами. Уже несколько столетий в Атлантическом океане близ побережья США творится что-то неладное. В районе, ограниченном воображаемыми линиями, соединяющими Бермудские острова, Флориду и Пуэрто-Рико, при таинственных обстоятельствах погибают корабли и самолеты. При этом никто не может обнаружить обломки транспортных средств и тела погибших.
Тип релиза: HDTV 1080i
Контейнер: MKV
Видео: AVC, 1920x1080, (16:9), 25 fps, 7.4 Mbps, 0.142 bits/pixel
Аудио: русский MP2, 48 kHz, 2ch, 320 kbps
Сэмпл: http://multi-up.com/1032251

MediaInfo

GeneralUnique ID : 231688668736495442560335307118274746988 (0xAE4D9D4F2EC9D00BA4B9E0D1056D1A6C)Complete name : D:\Земля. Территория загадок_HDTV 1080i_RU_-dean10\01. Высота 6666. Легенды горы Кайлас.mkvFormat : MatroskaFormat version : Version 4 / Version 2File size : 1.27 GiBDuration : 23mn 20sOverall bit rate : 7 806 KbpsEncoded date : UTC 2015-02-11 13:56:25Writing application : mkvmerge v7.6.0 ('Garden of Dreams') 64bit built on Feb 8 2015 13:04:34Writing library : libebml v1.3.1 + libmatroska v1.4.2DURATION : 00:23:20.544000000NUMBER_OF_FRAMES : 58356NUMBER_OF_BYTES : 56021760_STATISTICS_WRITING_APP : mkvmerge v7.6.0 ('Garden of Dreams') 64bit built on Feb 8 2015 13:04:34_STATISTICS_WRITING_DATE_UTC : 2015-02-11 13:56:25_STATISTICS_TAGS : BPS DURATION NUMBER_OF_FRAMES NUMBER_OF_BYTES
VideoID : 1Format : AVCFormat/Info : Advanced Video CodecFormat profile : High@L4.0Format settings, CABAC : YesFormat settings, ReFrames : 2 framesCodec ID : V_MPEG4/ISO/AVCDuration : 23mn 20sBit rate : 7 331 KbpsWidth : 1 920 pixelsHeight : 1 080 pixelsDisplay aspect ratio : 16:9Frame rate mode : ConstantFrame rate : 25.000 fpsStandard : ComponentColor space : YUVChroma subsampling : 4:2:0Bit depth : 8 bitsScan type : MBAFFScan order : Top Field FirstBits/(Pixel*Frame) : 0.141Stream size : 1.20 GiB (94%)Default : YesForced : NoColor primaries : BT.709Transfer characteristics : BT.709Matrix coefficients : BT.709Color range : Limited
AudioID : 2Format : MPEG AudioFormat version : Version 1Format profile : Layer 2Codec ID : A_MPEG/L2Codec ID/Hint : MP2Duration : 23mn 20sBit rate mode : ConstantBit rate : 320 KbpsChannel(s) : 2 channelsSampling rate : 48.0 KHzCompression mode : LossyStream size : 53.4 MiB (4%)Language : RussianDefault : YesForced : No

Скриншоты

[Профиль] [ЛС]
Показать сообщения:    

Текущее время: Сегодня 20:44

Часовой пояс: GMT



Вы не можете начинать темы
Вы не можете отвечать на сообщения
Вы не можете редактировать свои сообщения
Вы не можете удалять свои сообщения
Вы не можете голосовать в опросах
Вы не можете прикреплять файлы к сообщениям
Вы не можете скачивать файлы