Земля Санникова (Альберт С. Мкртчян, Леонид Попов)[1973, приключения, DVDRip]

 
Автор Сообщение

sergej644 ®

Пол:

Стаж: 5 лет 11 месяцев

Сообщений: 6150

Откуда: Soviet Union



Награды: 9 (Подробнее)

Top Seeder 4 (Количество: 1) Top Seeder 5 (Количество: 1) Mega Seeder 5 (Количество: 1)
Торрент-статистика

Создавать темы 11-Июл-2015 15:27

[Цитировать]

--Земля Санникова DVDRip Страна: СССР
Производство: Мосфильм
Жанр: приключения
Год выпуска: 1973
Продолжительность: 01:29:38
Перевод: не требуется
Оригинальная аудиодорожка: русский
Cубтитры: нет
Режиссер: Альберт С. Мкртчян, Леонид Попов
В ролях:
Владислав Дворжецкий, Георгий Вицин, Олег Даль, Юрий Назаров, Махмуд Эсамбаев, Николай Гриценко, Алена Чухрай, Геворк Чепчян, Петр Абашеев, Турсун Куралиев, Екатерина Самбуева, Назира Мамбетова, Сергей Полежаев, Александр Суснин, Николай Крюков...
Описание:
Более ста лет загадка земли, затерянной среди арктических льдов, волновала путешественников, но никто не мог достичь ее. Герой фильма, политический ссыльный Ильин, отправляется в экспедицию, которую финансирует богатый золотопромышленник.
Отважные путешественники обнаруживают среди ледяного безмолвия цветущий оазис. Но выясняется, что во время землетрясения он должен исчезнуть. Ильин с товарищами стремится снова достичь материка в попытке предотвратить катастрофу…- -Исходник: DVD5 R5
Тип релиза: DVDRip
Контейнер: AVI
Видео: 720x304 (2,35:1), 25 fps, XviD ~ 1868 kbps avg, 0.341 bit/pixel
Аудио: 48 kHz, Dolby AC3 5.1, 448 kbps

MediaInfo

Общее
Полное имя                               : Zemlya.Sannikova.1973.DVDRip_[Youtracker]_by_AVP Studio.avi
Формат                                   : AVI
Формат/Информация                        : Audio Video Interleave
Размер файла                             : 1,46 Гбайт
Продолжительность                        : 1 ч. 29 м.
Общий поток                              : 2326 Кбит/сек
Программа кодирования                    : VirtualDubModRus 1.5.10.2 (build 2542/release)
Библиотека кодирования                   : VirtualDubMod build 2542/release
Видео
Идентификатор                            : 0
Формат                                   : MPEG-4 Visual
Профиль формата                          : Advanced Simple@L5
Параметр BVOP формата                    : 1
Параметр QPel формата                    : Нет
Параметр GMC формата                     : Без точки перехода
Параметр матрицы формата                 : Выборочная
Идентификатор кодека                     : XVID
Идентификатор кодека/Подсказка           : XviD
Продолжительность                        : 1 ч. 29 м.
Битрейт                                  : 1868 Кбит/сек
Ширина                                   : 720 пикселей
Высота                                   : 304 пикселя
Соотношение сторон                       : 2,35:1
Частота кадров                           : 25,000 кадров/сек
Цветовое пространство                    : YUV
Субдискретизация насыщенности            : 4:2:0
Битовая глубина                          : 8 бит
Тип развёртки                            : Прогрессивная
Метод сжатия                             : С потерями
Бит/(Пиксели*Кадры)                      : 0.341
Размер потока                            : 1,17 Гбайт (80%)
Библиотека кодирования                   : XviD 65
Аудио
Идентификатор                            : 1
Формат                                   : AC-3
Формат/Информация                        : Audio Coding 3
Расширение режима                        : CM (complete main)
Идентификатор кодека                     : 2000
Продолжительность                        : 1 ч. 29 м.
Вид битрейта                             : Постоянный
Битрейт                                  : 448 Кбит/сек
Каналы                                   : 6 каналов
Расположение каналов                     : Front: L C R, Side: L R, LFE
Частота                                  : 48,0 КГц
Битовая глубина                          : 16 бит
Метод сжатия                             : С потерями
Размер потока                            : 287 Мбайт (19%)
Выравнивание                             : Разделение по промежуткам
Продолжительность промежутка             : 40  мс. (1,00 видеокадр)
Время предзагрузки промежутка            : 500  мс

Скриншоты



Последний раз редактировалось: sergej644 (2015-08-07 17:45), всего редактировалось 1 раз
[Профиль] [ЛС]
Кто просматривает тему:

Форум Тема Автор Размер
Rock (Russian Rock) ВИА Земляне - Золотые Хиты (Лучшие Песни) - 2007 [FLAC, image+.cue, lossless] sergej644 639 MB
Metal (Фолк Метал) Земля Ветров - Моя Земля - 2016, AC3, 320 kbps достали все 104 MB
Сhanson (Шансон) Марина Соболева – Земля моя - 2008, MP3, 320 kbps Magnat 105 MB
Animal Planet Animal Planet: Земля динозавров / When Dinosaurs Ruled (Jurassica) [сезон 1 серии 1-5 из 5] (Тони Митчелл, Саймон Ллойд, Дэвид Тибблс) [1999 г., Документальный, научно-познавательный, и... skorpionN 7.34 GB
BBC BBC: Планета Земля 2 / Planet Earth II [02x01-02] (2016) HDTVRip 1080p от studia23 | Sub ZeNArD 9.18 GB
Discovery Discovery Science: Как устроена Земля / Discovery Science: How the Earth Works (8 серий из 8) (Джереми Тернер / Jeremy Turner) [2013, документальный, научно-познавательный, HDTVRip] reversefile 4.04 GB
Программы [Разное] Google Earth/Google Планета Земля v8.0.0.2305 [Android 4.0+, RUS] TorrentFilm 8 MB
Зарубежные мультфильмы Астерикс: Земля Богов / Asterix: Le domaine des dieux (Луис Клиши, Александр Астье) [2014 г., мультфильм, приключения, фэнтези, комедия, HDRip] BOSS 1.37 GB
Показать сообщения:    

Текущее время: Сегодня 05:25

Часовой пояс: GMT



Вы не можете начинать темы
Вы не можете отвечать на сообщения
Вы не можете редактировать свои сообщения
Вы не можете удалять свои сообщения
Вы не можете голосовать в опросах
Вы не можете прикреплять файлы к сообщениям
Вы не можете скачивать файлы