Земля Санникова (Альберт Мкртчян, Леонид Попов) [1973 | Приключения, Советское кино | DVDRip-AVC]

 
Автор Сообщение

sergej644 ®

Пол:

Стаж: 4 года 11 месяцев

Сообщений: 6046

Откуда: Soviet Union



Награды: Нет

Торрент-статистика

Создавать темы 29-Июл-2014 20:56

[Цитировать]

-Земля Санникова- Информация о фильме
Название: Земля Санникова
Год выхода: 1973
Страна: СССР
Студия: Мосфильм
Жанр: Приключения, Советское кино
Продолжительность: 01:29:39
Перевод: не требуется
Режиссер: Альберт Мкртчян, Леонид Попов

В ролях:
Владислав Дворжецкий, Георгий Вицин, Олег Даль, Махмуд Эсамбаев, Игорь Старыгин, Игорь Ледогоров
О фильме:
Более ста лет загадка земли, затерянной среди арктических льдов, волновала путешественников, но никто не мог достичь ее. Герой фильма, политический ссыльный Ильин, отправляется в экспедицию, которую финансирует богатый золотопромышленник.
- Файл
Кодек: x264 AVC High@L3.0
Качество: DVDRip-AVC
Видео: 720*432(2,35:1), ~2800 Кбит/сек, 25,000 кадр/сек, 0,355 bit/pic
Звук: AC3, 384 Кбит/сек, 6 каналов
-

MI

Общее
Уникальный идентификатор         : 192595729504699607949310203796594713476 (0x90E496984CEAA5A594C3C9E99E156384)
Полное имя                       : T:\torrent files\Zemlya.Sannikova.1973.DVDRip-AVC.mkv
Формат                           : Matroska
Версия формата                   : Version 2
Размер файла                     : 2,01 Гбайт
Продолжительность                : 1 ч. 29 м.
Общий поток                      : 3207 Кбит/сек
Название фильма                  : Земля Санникова (1973)
Дата кодирования                 : UTC 2011-08-21 08:54:18
Программа кодирования            : mkvmerge v4.9.1 ('Ich will') сборка от Aug 10 2011 09:31:20
Библиотека кодирования           : libebml v1.2.1 + libmatroska v1.2.0
Видео
Идентификатор                    : 1
Формат                           : AVC
Формат/Информация                : Advanced Video Codec
Профиль формата                  : High@L3.0
Параметр CABAC формата           : Да
Параметр ReFrames формата        : 5 кадров
Идентификатор кодека             : V_MPEG4/ISO/AVC
Продолжительность                : 1 ч. 29 м.
Битрейт                          : 2759 Кбит/сек
Ширина                           : 720 пикселей
Высота                           : 432 пикселя
Соотношение сторон               : 2,35:1
Частота кадров                   : 25,000 кадров/сек
Цветовое пространство            : YUV
Субдискретизация насыщенности    : 4:2:0
Битовая глубина                  : 8 бит
Тип развёртки                    : Прогрессивная
Бит/(Пиксели*Кадры)              : 0.355
Размер потока                    : 1,73 Гбайт (86%)
Заголовок                        : AVC High@L3.0 25,000 кадр/сек
Библиотека кодирования           : x264 core 116 r2044 392e762
Настройки программы              : cabac=1 / ref=5 / deblock=1:-1:-1 / analyse=0x3:0x133 / me=umh / subme=7 / psy=1 / psy_rd=1.00:0.00 / mixed_ref=1 / me_range=16 / chroma_me=1 / trellis=2 / 8x8dct=1 / cqm=0 / deadzone=21,11 / fast_pskip=0 / chroma_qp_offset=-2 / threads=3 / sliced_threads=0 / nr=0 / decimate=1 / interlaced=0 / bluray_compat=0 / constrained_intra=0 / bframes=3 / b_pyramid=2 / b_adapt=2 / b_bias=0 / direct=3 / weightb=1 / open_gop=0 / weightp=2 / keyint=250 / keyint_min=25 / scenecut=40 / intra_refresh=0 / rc_lookahead=50 / rc=crf / mbtree=1 / crf=18.0 / qcomp=0.60 / qpmin=0 / qpmax=69 / qpstep=4 / ip_ratio=1.40 / aq=1:1.00
Язык                             : Russian
Аудио
Идентификатор                    : 2
Формат                           : AC-3
Формат/Информация                : Audio Coding 3
Расширение режима                : CM (complete main)
Идентификатор кодека             : A_AC3
Продолжительность                : 1 ч. 29 м.
Вид битрейта                     : Постоянный
Битрейт                          : 384 Кбит/сек
Каналы                           : 6 каналов
Расположение каналов             : Front: L C R, Side: L R, LFE
Частота                          : 48,0 КГц
Битовая глубина                  : 16 бит
Метод сжатия                     : С потерями
Размер потока                    : 246 Мбайт (12%)
Заголовок                        : AC-3 384 Кбит/сек 6 каналов
Язык                             : Russian
- -- --
[Профиль] [ЛС]

Создавать темы 06-Авг-2015 22:04 (спустя 1 год)

Топик был перенесен из форума Кино СССР в форум Кино СССР
sergej644
 
Показать сообщения:    

Текущее время: Сегодня 11:05

Часовой пояс: GMT



Вы не можете начинать темы
Вы не можете отвечать на сообщения
Вы не можете редактировать свои сообщения
Вы не можете удалять свои сообщения
Вы не можете голосовать в опросах
Вы не можете прикреплять файлы к сообщениям
Вы не можете скачивать файлы