Земля обетованная / The Land (2016) WEB-DLRip 720p | L

 
Автор Сообщение

BOSS ®

Пол:

Стаж: 3 года

Сообщений: 7633

Откуда: ODESSA



Награды: 22 (Подробнее)

Top Seeder 3 (Количество: 1) Top Releaser 3 (Количество: 1) Top Releaser 4 (Количество: 1)
Торрент-статистика

Создавать темы 09-Окт-2017 16:43

[Цитировать]

Информация о фильме
Наименование: Земля обетованная
Оригинальное наименование: The Land
Произведено: США
Категория: драма
Режиссер постановщик: Стивен Кейпл мл.
В главных ролях: Хорхе Лендеборг мл., Мойзес Ариас, Рафи Гаврон, Эзри Уокер, Машин Ган Келли, Роберт Хантер, Мелвин Грегг, Кристофер Амитрано, Надя Симмс, Эшли Морган
О фильме:
История четверых подростков, которые одним летом решают оставить улицы Кливленда, чтобы начать жить своей мечтой — профессиональным скейтбордингом. Однако нарвавшись на местных наркоторговцев, их братству предстоит настоящее испытание, ведь это лето может стать для них последним.

Файл
Качество: WEB-DLRip 720p
Видео данные: MKV, 1280x536 (2.40:1), 23.976 fps, 4000 Кбит/с
Аудио данные: Русский (MP3, 2 ch, 320 Кбит/с)
Перевод: Любительский многоголосый (GreenРай Studio)
Продолжительность: 01:42:02

Mediainfo

General
Unique ID : 235949511834576014773393064997694548886 (0xB1823917E06070C9B32AE340D6ED2B96)
Complete name : D:Рабочий столThe.Land.2016.P.WEB-DL.720p.mkv
Format : Matroska
Format version : Version 4 / Version 2
File size : 3.01 GiB
Duration : 1 h 42 min
Overall bit rate mode : Constant
Overall bit rate : 4 208 kb/s
Encoded date : UTC 2017-10-08 15:45:45
Writing application : mkvmerge v8.3.0 ('Over the Horizon') 64bit
Writing library : libebml v1.3.1 + libmatroska v1.4.2
Video
ID : 1
Format : AVC
Format/Info : Advanced Video Codec
Format profile : Main@L3.1
Format settings, CABAC : Yes
Format settings, ReFrames : 3 frames
Codec ID : V_MPEG4/ISO/AVC
Duration : 1 h 42 min
Bit rate mode : Constant
Bit rate : 4 000 kb/s
Width : 1 280 pixels
Height : 536 pixels
Display aspect ratio : 2.40:1
Frame rate mode : Constant
Frame rate : 23.976 (23976/1000) FPS
Standard : NTSC
Color space : YUV
Chroma subsampling : 4:2:0
Bit depth : 8 bits
Scan type : Progressive
Bits/(Pixel*Frame) : 0.243
Stream size : 2.78 GiB (92%)
Language : English
Default : Yes
Forced : No
Color range : Limited
Audio
ID : 2
Format : MPEG Audio
Format version : Version 1
Format profile : Layer 3
Mode : Joint stereo
Codec ID : A_MPEG/L3
Codec ID/Hint : MP3
Duration : 1 h 42 min
Bit rate mode : Constant
Bit rate : 320 kb/s
Channel(s) : 2 channels
Sampling rate : 48.0 kHz
Frame rate : 41.667 FPS (1152 spf)
Compression mode : Lossy
Stream size : 234 MiB (8%)
Default : Yes
Forced : No
ВНИМАНИЕ! Присутствует реклама!

Скриншоты

Релиз от:
[Профиль] [ЛС]
Кто просматривает тему:

Форум Тема Автор Размер
Rock (Russian Rock) ВИА Земляне - Золотые Хиты (Лучшие Песни) - 2007 [FLAC, image+.cue, lossless] sergej644 639 MB
Metal (Фолк Метал) Земля Ветров - Моя Земля - 2016, AC3, 320 kbps достали все 104 MB
Сhanson (Шансон) Марина Соболева – Земля моя - 2008, MP3, 320 kbps Magnat 105 MB
Animal Planet Animal Planet: Земля динозавров / When Dinosaurs Ruled (Jurassica) [сезон 1 серии 1-5 из 5] (Тони Митчелл, Саймон Ллойд, Дэвид Тибблс) [1999 г., Документальный, научно-познавательный, и... skorpionN 7.34 GB
BBC BBC: Планета Земля 2 / Planet Earth II [02x01-02] (2016) HDTVRip 1080p от studia23 | Sub ZeNArD 9.18 GB
Discovery Discovery Science: Как устроена Земля / Discovery Science: How the Earth Works (8 серий из 8) (Джереми Тернер / Jeremy Turner) [2013, документальный, научно-познавательный, HDTVRip] reversefile 4.04 GB
Программы [Разное] Google Earth/Google Планета Земля v8.0.0.2305 [Android 4.0+, RUS] TorrentFilm 8 MB
Зарубежные мультфильмы Астерикс: Земля Богов / Asterix: Le domaine des dieux (Луис Клиши, Александр Астье) [2014 г., мультфильм, приключения, фэнтези, комедия, HDRip] BOSS 1.37 GB
Показать сообщения:    

Текущее время: Сегодня 18:59

Часовой пояс: GMT



Вы не можете начинать темы
Вы не можете отвечать на сообщения
Вы не можете редактировать свои сообщения
Вы не можете удалять свои сообщения
Вы не можете голосовать в опросах
Вы не можете прикреплять файлы к сообщениям
Вы не можете скачивать файлы