Земля в иллюминаторе (Константин Мурашев) [2015, Документальный, HDTV 1080i]

 
Автор Сообщение

TorrentFilm ®

Пол:

Стаж: 2 года

Сообщений: 7741



Награды: Нет

Торрент-статистика

Создавать темы 02-Май-2015 00:03

[Цитировать]

Земля в иллюминаторе- Год выпуска: 2015
Страна: Россия
Жанр: документальный
Продолжительность: 00:49:59
Перевод: Не требуется
Русские субтитры: есть-Автор: Автор: Татьяна Мишукова
Режиссер: Константин Мурашев-Описание: Специально для зрителей Первого канала космонавты на МКС полгода снимали свою жизнь на Орбите. Реальная жизнь за сотни километров от Земли в жанре спецрепортажей.
Зрители увидят, из чего состоят не только рабочие будни космонавтов, но и как встречают Новый год в невесомости, узнают, почему еду из тюбиков заменили продукты из пакетиков, как "принимают душ" на орбите и занимаются садоводством, почему спят стоя и занимаются спортом вверх ногами.
Вместе с экипажем видеокамера прошли весь путь – от старта корабля с Байконура, до возвращения на Землю. Вы узнаете, как космонавты наводят порядок в невесомости, как с помощью пылесоса можно сделать стрижку и вымыть голову без воды. Из-за невесомости на МКС все устроено по-другому. Здесь нет такого понятия как пол, потолок и стены. Рабочее место располагается повсюду. Или спальное место. Вы скажете: а что может быть необычного? Лёг - и спишь. Но в космосе всё совсем не так. Елена Серова – первая россиянка, побывавшая на МКС – покажет, как устроено ее спальное место. А космонавт Антон Шкаплеров специально для нас устроит показательную… головомойку. Вымоет голову в условиях невесомости.
Также вы узнаете, что такие привычные вещи как таблетки в блистерах, сковородки с антипригарным покрытием и липучки для одежды появились благодаря космосу. И какие новые технологии испытываются сегодня, чтобы завтра они стали нормой для космонавтов.
И, конечно, мы испытаем одно из главных удовольствий на орбите – увидим Землю в иллюминаторе. Вид на нашу планету из космоса – уникальное зрелище, к которому невозможно привыкнуть – утверждают сами космонавты. Даже ради этих минут стоит пройти все испытания и преодолеть трудности.
В фильме принимают участие: Антон Шкаплеров, Олег Артемьев, Елена Серова, Олег Кононенко, Сергей Рязанский, Марк Серов и др.-Тип релиза: HDTV 1080i
Контейнер: TS
Видео: AVC (H264), 1920x1080 (16:9), 25 fps, 8344 Kbps
Аудио: MP2, 48 KHz, 2 ch, 192 Kbps
Формат субтитров: Teletext (TTX)-

MediaInfo

GeneralID : 1 (0x1)Complete name : E:\Земля в иллюминаторе (2015) [HDTV 1080i].tsFormat : MPEG-TSFile size : 3.14 GiBDuration : 49mn 59sOverall bit rate mode : VariableOverall bit rate : 8 981 Kbps
VideoID : 305 (0x131)Menu ID : 20105 (0x4E89)Format : AVCFormat/Info : Advanced Video CodecFormat profile : High@L4.0Format settings, CABAC : YesFormat settings, ReFrames : 4 framesCodec ID : 27Duration : 49mn 59sBit rate : 8 344 KbpsWidth : 1 920 pixelsHeight : 1 080 pixelsDisplay aspect ratio : 16:9Frame rate : 25.000 fpsStandard : ComponentColor space : YUVChroma subsampling : 4:2:0Bit depth : 8 bitsScan type : InterlacedScan order : Top Field FirstBits/(Pixel*Frame) : 0.161Stream size : 2.91 GiB (93%)Color primaries : BT.709Transfer characteristics : BT.709Matrix coefficients : BT.709Color range : Limited
AudioID : 405 (0x195)Menu ID : 20105 (0x4E89)Format : MPEG AudioFormat version : Version 1Format profile : Layer 2Codec ID : 3Duration : 49mn 59sBit rate mode : ConstantBit rate : 192 KbpsChannel(s) : 2 channelsSampling rate : 48.0 KHzCompression mode : LossyDelay relative to video : -120msStream size : 68.6 MiB (2%)Language : Russian
TextID : 406 (0x196)-888Menu ID : 20105 (0x4E89)Format : Teletext SubtitleLanguage : Russian
MenuID : 205 (0xCD)Menu ID : 20105 (0x4E89)Duration : 49mn 59sList : 305 (0x131) (AVC) / 405 (0x195) (MPEG Audio, Russian) / 406 (0x196) ()Language : / Russian
[Профиль] [ЛС]
Показать сообщения:    

Текущее время: Сегодня 06:17

Часовой пояс: GMT



Вы не можете начинать темы
Вы не можете отвечать на сообщения
Вы не можете редактировать свои сообщения
Вы не можете удалять свои сообщения
Вы не можете голосовать в опросах
Вы не можете прикреплять файлы к сообщениям
Вы не можете скачивать файлы