Земля будущего / Tomorrowland (2015) BDRip 1080p | Лицензия

 
Автор Сообщение

Russian Mafia ®

Пол:

Стаж: 1 год 8 месяцев

Сообщений: 4246



Награды: 10 (Подробнее)

Top Releaser 3 (Количество: 1) Top Releaser 2 (Количество: 1) За внесенный вклад в развитие сайта (Количество: 1)
Торрент-статистика

Создавать темы 10-Окт-2015 09:06

[Цитировать]

Информация о фильме
Название: Земля будущего
Оригинальное название: Tomorrowland
Год выпуска: 2015
Жанр: Фантастика, боевик, детектив, приключения
Выпущено: США, Испания, A113, Babieka, Walt Disney Pictures
Режиссер: Брэд Берд
В ролях: Бритт Робертсон, Джордж Клуни, Рэффи Кэссиди, Хью Лори, Тим МакГроу, Кэтрин Хан, Кигэн-Майкл Ки, Кристофер Бауэр, Томас Робинсон, Пирс Гэнон, Мэттью МакКоулл, Джуди Грир, Мэтт Андерсон, Майкл Джаккино, Д. Хэрлан Катшелл, Шило Нельсон, Ксанта Рэдли, Дэвид Найкл, Пол МакДжиллион, Пирс Виссер
О фильме: Когда в руки к молодой девушке, жаждущей новых приключений, попадает загадочный предмет, открывающий доступ в параллельную реальность, она вынуждена обратиться за помощью к циничному гению-изобретателю Фрэнку. Кейси должна убедить бывшего вундеркинда раскрыть ей тайну загадочного места, находящегося вне привычной реальности, известного как Земля будущего, и убедить Фрэнка вернуться туда, откуда его однажды изгнали…

Файл
Качество: BDRip (1080p)
Видео: MPEG-4 AVC, 12785 Кбит/с, 1920x872, 23.976 кадр/с
Аудио: Русский (AC3, 6 ch, 640 Кбит/с), английский (DTS, 6 ch, 1509 Кбит/с)
Размер: 13.57 ГБ
Продолжительность: 02:10:03
Перевод: Дублированный
Субтитры: Русские, английские
Озвучивание: Дублированное (Лицензия).
Сохранены оригинальные чаптеры как на Blu-Ray.

x264

x264 [info]: frame I:1454 Avg QP:15.34 size:233096
x264 [info]: frame P:50086 Avg QP:17.36 size:106424
x264 [info]: frame B:135552 Avg QP:18.89 size: 50163
x264 [info]: consecutive B-frames: 5.6% 4.5% 15.7% 20.3% 16.3% 33.8% 2.6% 0.5% 0.3% 0.2% 0.2%
x264 [info]: mb I I16..4: 29.8% 58.7% 11.6%
x264 [info]: mb P I16..4: 12.6% 29.3% 2.8% P16..4: 19.3% 23.0% 6.1% 2.0% 0.2% skip: 4.7%
x264 [info]: mb B I16..4: 7.0% 5.7% 0.6% B16..8: 27.5% 20.0% 3.5% direct:10.2% skip:25.5% L0:38.6% L1:40.3% BI:21.1%
x264 [info]: 8x8 transform intra:55.5% inter:44.1%
x264 [info]: direct mvs spatial:98.2% temporal:1.8%
x264 [info]: coded y,uvDC,uvAC intra: 94.0% 96.4% 85.9% inter: 33.3% 37.9% 15.6%
x264 [info]: i16 v,h,dc,p: 4% 5% 42% 48%
x264 [info]: i8 v,h,dc,ddl,ddr,vr,hd,vl,hu: 13% 11% 17% 7% 9% 10% 10% 10% 12%
x264 [info]: i4 v,h,dc,ddl,ddr,vr,hd,vl,hu: 21% 10% 23% 6% 8% 8% 8% 7% 8%
x264 [info]: i8c dc,h,v,p: 61% 17% 12% 11%
x264 [info]: Weighted P-Frames: Y:12.7% UV:8.8%
x264 [info]: ref P L0: 53.4% 11.9% 24.2% 8.4% 1.9% 0.2%
x264 [info]: ref B L0: 86.4% 11.2% 2.4%
x264 [info]: ref B L1: 92.9% 7.1%
x264 [info]: kb/s:12783.33

Инфо-файл

Общее
Уникальный идентификатор : 207371885939718491470093330907006931461 (0x9C025F5A8E84EDC5A20B766C3B2E9205)
Полное имя : D:ЗагрузкиTomorrowland.2015.x264.BDRip.(1080p).ExKinoRay.mkv
Формат : Matroska
Версия формата : Version 2
Размер файла : 13,6 Гбайт
Продолжительность : 2 ч. 10 м.
Общий поток : 14,9 Мбит/сек
Название фильма : Земля будущего.2015.Rip by: ollan
Дата кодирования : UTC 2015-10-10 08:03:38
Программа кодирования : mkvmerge v5.6.0 ('Kenya Kane') built on May 27 2012 16:44:04
Библиотека кодирования : libebml v1.2.3 + libmatroska v1.3.0
Видео
Идентификатор : 1
Формат : AVC
Формат/Информация : Advanced Video Codec
Профиль формата : High@L4.1
Параметр CABAC формата : Да
Параметр ReFrames формата : 4 кадра
Идентификатор кодека : V_MPEG4/ISO/AVC
Продолжительность : 2 ч. 10 м.
Битрейт : 12,8 Мбит/сек
Ширина : 1920 пикселей
Высота : 872 пикселя
Соотношение сторон : 2,2:1
Режим частоты кадров : Постоянный
Частота кадров : 23,976 кадра/сек
Цветовое пространство : YUV
Субдискретизация насыщенности : 4:2:0
Битовая глубина : 8 бит
Тип развёртки : Прогрессивная
Бит/(Пиксели*Кадры) : 0.318
Размер потока : 11,3 Гбайт (84%)
Библиотека кодирования : x264 core 125 r2200 999b753
Настройки программы : cabac=1 / ref=4 / deblock=1:-3:-3 / analyse=0x3:0x133 / me=umh / subme=11 / psy=1 / psy_rd=1.00:0.10 / mixed_ref=1 / me_range=32 / chroma_me=1 / trellis=2 / 8x8dct=1 / cqm=0 / deadzone=21,11 / fast_pskip=0 / chroma_qp_offset=-3 / threads=12 / lookahead_threads=2 / sliced_threads=0 / nr=0 / decimate=0 / interlaced=0 / bluray_compat=0 / constrained_intra=0 / bframes=10 / b_pyramid=2 / b_adapt=2 / b_bias=0 / direct=3 / weightb=1 / open_gop=0 / weightp=2 / keyint=240 / keyint_min=23 / scenecut=40 / intra_refresh=0 / rc=2pass / mbtree=0 / bitrate=12785 / ratetol=1.0 / qcomp=0.60 / qpmin=0 / qpmax=69 / qpstep=4 / cplxblur=20.0 / qblur=0.5 / ip_ratio=1.40 / pb_ratio=1.30 / aq=1:1.00
Язык : English
Default : Да
Forced : Нет
Аудио #1
Идентификатор : 2
Формат : AC-3
Формат/Информация : Audio Coding 3
Расширение режима : CM (complete main)
Параметр Endianness формата : Big
Идентификатор кодека : A_AC3
Продолжительность : 2 ч. 10 м.
Вид битрейта : Постоянный
Битрейт : 640 Кбит/сек
Каналы : 6 каналов
Расположение каналов : Front: L C R, Side: L R, LFE
Частота : 48,0 КГц
Битовая глубина : 16 бит
Метод сжатия : С потерями
Размер потока : 595 Мбайт (4%)
Заголовок : Дублированный (Лицензия)
Язык : Russian
Default : Да
Forced : Нет
Аудио #2
Идентификатор : 3
Формат : DTS
Формат/Информация : Digital Theater Systems
Режим : 16
Параметр Endianness формата : Big
Идентификатор кодека : A_DTS
Продолжительность : 2 ч. 10 м.
Вид битрейта : Постоянный
Битрейт : 1509 Кбит/сек
Каналы : 6 каналов
Расположение каналов : Front: L C R, Side: L R, LFE
Частота : 48,0 КГц
Битовая глубина : 24 бит
Метод сжатия : С потерями
Размер потока : 1,37 Гбайт (10%)
Язык : English
Default : Нет
Forced : Нет
Текст #1
Идентификатор : 4
Формат : UTF-8
Идентификатор кодека : S_TEXT/UTF8
Идентификатор кодека/Информация : UTF-8 Plain Text
Заголовок : Forced
Язык : Russian
Default : Да
Forced : Нет
Текст #2
Идентификатор : 5
Формат : UTF-8
Идентификатор кодека : S_TEXT/UTF8
Идентификатор кодека/Информация : UTF-8 Plain Text
Заголовок : Full
Язык : Russian
Default : Нет
Forced : Нет
Текст #3
Идентификатор : 6
Формат : UTF-8
Идентификатор кодека : S_TEXT/UTF8
Идентификатор кодека/Информация : UTF-8 Plain Text
Заголовок : Full
Язык : English
Default : Нет
Forced : Нет
Меню
00:00:00.000 : en:Chapter 01
00:16:12.013 : en:Chapter 02
00:21:56.565 : en:Chapter 03
00:28:52.189 : en:Chapter 04
00:37:37.046 : en:Chapter 05
00:46:35.418 : en:Chapter 06
00:55:01.048 : en:Chapter 07
01:11:48.471 : en:Chapter 08
01:19:18.087 : en:Chapter 09
01:26:45.033 : en:Chapter 10
01:30:57.702 : en:Chapter 11
01:38:05.296 : en:Chapter 12
01:49:50.501 : en:Chapter 13
01:56:11.298 : en:Chapter 14
02:01:26.946 : en:Chapter 15

Скриншоты



[Профиль] [ЛС]
Кто просматривает тему:

Форум Тема Автор Размер
Rock (Russian Rock) ВИА Земляне - Золотые Хиты (Лучшие Песни) - 2007 [FLAC, image+.cue, lossless] sergej644 639 MB
Сhanson (Шансон) Марина Соболева – Земля моя - 2008, MP3, 320 kbps Magnat 105 MB
Animal Planet Animal Planet: Земля динозавров / When Dinosaurs Ruled (Jurassica) [сезон 1 серии 1-5 из 5] (Тони Митчелл, Саймон Ллойд, Дэвид Тибблс) [1999 г., Документальный, научно-познавательный, и... skorpionN 7.34 GB
BBC BBC: Планета Земля 2 / Planet Earth II [02x01-02] (2016) HDTVRip 1080p от studia23 | Sub Zithylord 9.18 GB
Discovery Discovery Science: Как устроена Земля / Discovery Science: How the Earth Works (8 серий из 8) (Джереми Тернер / Jeremy Turner) [2013, документальный, научно-познавательный, HDTVRip] reversefile 4.04 GB
Action Land of the Dead: Road to Fiddler\'s Green / Земля мертвых: Дорога к Фиддлерз Грин [L] [RUS / RUS] (2005) TorrentFilm 990 MB
Программы [Разное] Google Earth/Google Планета Земля v8.0.0.2305 [Android 4.0+, RUS] TorrentFilm 8 MB
Зарубежные мультфильмы Астерикс: Земля Богов / Asterix: Le domaine des dieux (Луис Клиши, Александр Астье) [2014 г., мультфильм, приключения, фэнтези, комедия, HDRip] BOSS 1.37 GB
Показать сообщения:    

Текущее время: Сегодня 09:57

Часовой пояс: GMT



Вы не можете начинать темы
Вы не можете отвечать на сообщения
Вы не можете редактировать свои сообщения
Вы не можете удалять свои сообщения
Вы не можете голосовать в опросах
Вы не можете прикреплять файлы к сообщениям
Вы не можете скачивать файлы