Земля будущего / Tomorrowland (2015) BDRip 720p | Лицензия

 
Автор Сообщение

достали все ®

Пол:

Стаж: 1 год 8 месяцев

Сообщений: 6577



Награды: 12 (Подробнее)

Mega Seeder 4 (Количество: 1) Top Releaser 3 (Количество: 1) Mega Seeder 3 (Количество: 1)
Торрент-статистика

Создавать темы 09-Окт-2015 02:51

[Цитировать]

Информация о фильме
Название: Земля будущего
Оригинальное название: Tomorrowland
Год выпуска: 2015
Жанр: Фантастика, боевик, детектив, приключения
Выпущено: США, Испания, A113, Babieka, Walt Disney Pictures
Режиссер: Брэд Берд
В ролях: Бритт Робертсон, Джордж Клуни, Рэффи Кэссиди, Хью Лори, Тим МакГроу, Кэтрин Хан, Кигэн-Майкл Ки, Кристофер Бауэр, Томас Робинсон, Пирс Гэнон, Мэттью МакКоулл, Джуди Грир, Мэтт Андерсон, Майкл Джаккино, Д. Хэрлан Катшелл, Шило Нельсон, Ксанта Рэдли, Дэвид Найкл, Пол МакДжиллион, Пирс Виссер
О фильме: Когда в руки к молодой девушке, жаждущей новых приключений, попадает загадочный предмет, открывающий доступ в параллельную реальность, она вынуждена обратиться за помощью к циничному гению-изобретателю Фрэнку. Кейси должна убедить бывшего вундеркинда раскрыть ей тайну загадочного места, находящегося вне привычной реальности, известного как Земля будущего, и убедить Фрэнка вернуться туда, откуда его однажды изгнали…
Качество: BDRip (720p)
Видео: MPEG-4 AVC, 6928 Кбит/с, 1280x582
Аудио: Русский (AC3, 6 ch, 640 Кбит/с), английский (DTS, 6 ch, 1510 Кбит/с)
Размер: 8.41 ГБ
Продолжительность: 02:10:03
Перевод: Дублированный [лицензия]
Субтитры: Русские, английские

MI

Общее
Уникальный идентификатор : 222515291010648410335088642166383562400 (0xA766E2DE465B5D55B05E91B89785CEA0)
Полное имя : C:Tomorrowland.2015.BDRip.720p.BLUEBIRD.mkv
Формат : Matroska
Версия формата : Version 2
Размер файла : 8,41 Гбайт
Продолжительность : 2 ч. 10 м.
Общий поток : 9261 Кбит/сек
Название фильма : Tomorrowland.2015.BDRip.720p.BLUEBIRD
Дата кодирования : UTC 2015-10-08 20:08:55
Программа кодирования : mkvmerge v7.9.0 ('Birds') 64bit
Библиотека кодирования : libebml v1.3.1 + libmatroska v1.4.2
Attachements : cover.jpg
Видео
Идентификатор : 1
Формат : AVC
Формат/Информация : Advanced Video Codec
Профиль формата : High@L4.1
Параметр CABAC формата : Да
Параметр ReFrames формата : 11 кадров
Идентификатор кодека : V_MPEG4/ISO/AVC
Продолжительность : 2 ч. 10 м.
Битрейт : 6928 Кбит/сек
Ширина : 1280 пикселей
Высота : 582 пикселя
Соотношение сторон : 2,2:1
Режим частоты кадров : Постоянный
Частота кадров : 23,976 кадра/сек
Цветовое пространство : YUV
Субдискретизация насыщенности : 4:2:0
Битовая глубина : 8 бит
Тип развёртки : Прогрессивная
Бит/(Пиксели*Кадры) : 0.388
Размер потока : 6,29 Гбайт (75%)
Заголовок : Tomorrowland.2015.BDRip.720p.BLUEBIRD
Библиотека кодирования : x264 core 146 r0+2586 e393126 t_mod_Custom [8-bit@all X86_64]
Настройки программы : cabac=1 / ref=11 / deblock=1:-3:-3 / analyse=0x3:0x133 / me=tesa / subme=10 / psy=1 / fade_compensate=0.00 / psy_rd=1.10:0.15 / mixed_ref=1 / me_range=24 / chroma_me=1 / trellis=2 / 8x8dct=1 / cqm=0 / deadzone=21,11 / fast_pskip=0 / chroma_qp_offset=-3 / threads=6 / lookahead_threads=1 / sliced_threads=0 / nr=0 / decimate=1 / interlaced=0 / bluray_compat=0 / constrained_intra=0 / fgo=0 / bframes=11 / b_pyramid=2 / b_adapt=2 / b_bias=0 / direct=3 / weightb=1 / open_gop=0 / weightp=2 / keyint=250 / keyint_min=23 / scenecut=40 / intra_refresh=0 / rc_lookahead=60 / rc=crf / mbtree=0 / crf=17.0000 / qcomp=0.70 / qpmin=0:0:0 / qpmax=69:69:69 / qpstep=4 / vbv_maxrate=62500 / vbv_bufsize=78125 / crf_max=0.0 / nal_hrd=none / filler=0 / ip_ratio=1.00 / pb_ratio=1.20 / aq=1:0.80 / aq-sensitivity=10.00 / aq-factor=1.00:1.00:1.00 / aq2=1:0.70 / aq2-sensitivity=15.00 / aq2-factor=1.00:1.00:1.00 / aq3=3:[0.60:0.60]:[0.60:0.60]:[0.60:0.60]:[0.60:0.60] / aq3-sensitivity=10.00 / aq3-factor=[1.00:1.00]:[1.00:1.00]:[1.00:1.00] / aq3-boundary=192:64:24
Язык : English
Default : Да
Forced : Нет
Цветовой диапазон : Limited
Основные цвета : BT.709
Характеристики трансфера : BT.709
Коэффициенты матрицы : BT.709
Аудио #1
Идентификатор : 2
Формат : AC-3
Формат/Информация : Audio Coding 3
Расширение режима : CM (complete main)
Параметр Endianness формата : Big
Идентификатор кодека : A_AC3
Продолжительность : 2 ч. 10 м.
Вид битрейта : Постоянный
Битрейт : 640 Кбит/сек
Каналы : 6 каналов
Расположение каналов : Front: L C R, Side: L R, LFE
Частота : 48,0 КГц
Метод сжатия : С потерями
Размер потока : 595 Мбайт (7%)
Заголовок : BD EUR
Язык : Russian
Default : Да
Forced : Нет
Аудио #2
Идентификатор : 3
Формат : DTS
Формат/Информация : Digital Theater Systems
Режим : 16
Параметр Endianness формата : Big
Идентификатор кодека : A_DTS
Продолжительность : 2 ч. 10 м.
Вид битрейта : Постоянный
Битрейт : 1509 Кбит/сек
Каналы : 6 каналов
Расположение каналов : Front: L C R, Side: L R, LFE
Частота : 48,0 КГц
Битовая глубина : 24 бит
Метод сжатия : С потерями
Размер потока : 1,37 Гбайт (16%)
Язык : English
Default : Нет
Forced : Нет
Текст #1
Идентификатор : 4
Формат : UTF-8
Идентификатор кодека : S_TEXT/UTF8
Идентификатор кодека/Информация : UTF-8 Plain Text
Заголовок : Forced
Язык : Russian
Default : Да
Forced : Нет
Текст #2
Идентификатор : 5
Формат : UTF-8
Идентификатор кодека : S_TEXT/UTF8
Идентификатор кодека/Информация : UTF-8 Plain Text
Заголовок : Full
Язык : Russian
Default : Нет
Forced : Нет
Текст #3
Идентификатор : 6
Формат : UTF-8
Идентификатор кодека : S_TEXT/UTF8
Идентификатор кодека/Информация : UTF-8 Plain Text
Язык : English
Default : Нет
Forced : Нет
Текст #4
Идентификатор : 7
Формат : UTF-8
Идентификатор кодека : S_TEXT/UTF8
Идентификатор кодека/Информация : UTF-8 Plain Text
Язык : English
Default : Нет
Forced : Нет
Меню
00:00:00.000 : en:00:00:00.000
00:16:12.013 : en:00:16:12.013
00:21:56.565 : en:00:21:56.565
00:28:52.189 : en:00:28:52.189
00:37:37.046 : en:00:37:37.046
00:46:35.418 : en:00:46:35.418
00:55:01.048 : en:00:55:01.048
01:11:48.471 : en:01:11:48.471
01:19:18.087 : en:01:19:18.087
01:26:45.033 : en:01:26:45.033
01:30:57.702 : en:01:30:57.702
01:38:05.296 : en:01:38:05.296
01:49:50.501 : en:01:49:50.501
01:56:11.298 : en:01:56:11.298
02:01:26.946 : en:02:01:26.946

Скриншоты



Релиз от:
[Профиль] [ЛС]
Показать сообщения:    

Текущее время: Сегодня 06:17

Часовой пояс: GMT



Вы не можете начинать темы
Вы не можете отвечать на сообщения
Вы не можете редактировать свои сообщения
Вы не можете удалять свои сообщения
Вы не можете голосовать в опросах
Вы не можете прикреплять файлы к сообщениям
Вы не можете скачивать файлы