Землетрясение на Эвересте / The Day Everest Shook (Dick Bower II) [2015, Документальный, HDTVRip 720p]

 
Автор Сообщение

TorrentFilm ®

Пол:

Стаж: 2 года

Сообщений: 7741



Награды: Нет

Торрент-статистика

Создавать темы 04-Июл-2015 00:06

[Цитировать]

Землетрясение на Эвересте / The Day Everest Shook
Год выпуска: 2015
Страна: Великобритания
Студия: Sky Vision
Жанр: Документальный
Продолжительность: 00:43:23
Перевод: Студийный (одноголосый закадровый) от National Geographic
Русские субтитры: нет
Режиссер: Dick Bower (II)
Описание: Документальный фильм раскрывает истории выживания и борьбы людей после недавнего землетрясения в Непале глазами очевидцев, а также знакомит с научными данными об этой разрушительной природной катастрофе. Первые удары землетрясений произошли 25—28 апреля 2015 года, самый мощный толчок был магнитудой 7,8
Сэмпл: http://multi-up.com/1055757
Тип релиза: HDTVRip 720p
Контейнер: MKV
Видео: MPEG4 Video (H264), 1280x720, 16:9, 25fps
Аудио: Русский, Dolby AC3 stereo, 48000Hz, 192kbps
Аудио 2: Английский, Dolby AC3 stereo, 48000Hz, 192kbps

MediaInfo

GeneralUnique ID : 250358919441475483920122262500499141662 (0xBC595FBD21D1CCD1A7A9AE6A69DA341E)Complete name : The Day Everest Shook\The.Day.Everest.Shook.720p.HDTV.Russian-English.mkvFormat : MatroskaFormat version : Version 4 / Version 2File size : 1.43 GiBDuration : 43mn 23sOverall bit rate : 4 722 KbpsEncoded date : UTC 2015-06-27 08:55:49Writing application : mkvmerge v6.9.1 ('Blue Panther') 32bit built on Apr 18 2014 18:15:44Writing library : libebml v1.3.0 + libmatroska v1.4.1
VideoID : 1Format : AVCFormat/Info : Advanced Video CodecFormat profile : High@L4.1Format settings, CABAC : YesFormat settings, ReFrames : 4 framesCodec ID : V_MPEG4/ISO/AVCDuration : 43mn 23sBit rate : 4 244 KbpsWidth : 1 280 pixelsHeight : 720 pixelsDisplay aspect ratio : 16:9Frame rate mode : ConstantFrame rate : 25.000 fpsColor space : YUVChroma subsampling : 4:2:0Bit depth : 8 bitsScan type : ProgressiveBits/(Pixel*Frame) : 0.184Stream size : 1.29 GiB (90%)Writing library : x264 core 142 r2479 dd79a61Encoding settings : cabac=1 / ref=2 / deblock=1:0:0 / analyse=0x3:0x113 / me=hex / subme=6 / psy=1 / psy_rd=1.00:0.00 / mixed_ref=1 / me_range=16 / chroma_me=1 / trellis=1 / 8x8dct=1 / cqm=0 / deadzone=21,11 / fast_pskip=1 / chroma_qp_offset=-2 / threads=3 / lookahead_threads=1 / sliced_threads=0 / nr=0 / decimate=1 / interlaced=0 / bluray_compat=0 / constrained_intra=0 / bframes=3 / b_pyramid=2 / b_adapt=1 / b_bias=0 / direct=1 / weightb=1 / open_gop=0 / weightp=1 / keyint=250 / keyint_min=25 / scenecut=40 / intra_refresh=0 / rc_lookahead=30 / rc=crf / mbtree=1 / crf=19.0 / qcomp=0.60 / qpmin=0 / qpmax=69 / qpstep=4 / vbv_maxrate=62500 / vbv_bufsize=78125 / crf_max=0.0 / nal_hrd=none / filler=0 / ip_ratio=1.40 / aq=1:1.00Default : YesForced : NoColor range : LimitedColor primaries : BT.709Transfer characteristics : BT.709Matrix coefficients : BT.709
Audio #1ID : 2Format : AC-3Format/Info : Audio Coding 3Mode extension : CM (complete main)Format settings, Endianness : BigCodec ID : A_AC3Duration : 43mn 23sBit rate mode : ConstantBit rate : 192 KbpsChannel(s) : 2 channelsChannel positions : Front: L RSampling rate : 48.0 KHzCompression mode : LossyStream size : 59.6 MiB (4%)Title : RussianLanguage : RussianDefault : YesForced : No
Audio #2ID : 3Format : AC-3Format/Info : Audio Coding 3Mode extension : CM (complete main)Format settings, Endianness : BigCodec ID : A_AC3Duration : 43mn 23sBit rate mode : ConstantBit rate : 192 KbpsChannel(s) : 2 channelsChannel positions : Front: L RSampling rate : 48.0 KHzCompression mode : LossyStream size : 59.6 MiB (4%)Title : EnglishLanguage : EnglishDefault : NoForced : No

Скриншоты

[Профиль] [ЛС]
Кто просматривает тему:

Форум Тема Автор Размер
Rock (Рок) Белый проект - Последний день на Земле - 2015, MP3, 320 kbps достали все 54 MB
Chanson (Шансон) Сборник - Одна на всей земле. Академия хитов шансона - 2015, MP3, 256 kbps Magnat 913 MB
Фильмы 2014 года 20 000 дней на Земле / 20,000 Days on Earth (2014) HDRip | Р достали все 1.45 GB
Документальные HD 20 000 дней на Земле / 20,000 Days on Earth (Ян Форсайт & Джейн Поллард / Iain Forsyth & Jane Pollard) [2014, Великобритания, Документальный, музыкальный, BDRip 1080p] + Sub Rus + Original Eng TorrentFilm 7.45 GB
Документальные HD 20 000 дней на Земле / 20,000 Days on Earth (Ян Форсайт & Джейн Поллард / Iain Forsyth & Jane Pollard) [2014, Документальный, драма, музыка, BDRip 1080p] TorrentFilm 7.25 GB
Фильмы 2014 года 20 000 дней на Земле / 20,000 Days on Earth (Ян Форсис, Джейн Поллард) [Документальный, драма, музыка, 2014] BDRip | L1 BOSS 1.46 GB
R.G.TorrentFilm Video 24 часа на Земле / 24 Hours on Earth [Серии 1-2 из 2] (Джеймс Хонейборн / James Honeyborne) [2013 г., Документальный, флора, фауна, SATRip] Dub (Видеофильм ТВ) Один 777 999 MB
BBC BBC: Древняя Греция. Величайший спектакль на Земле / Ancient Greece: The Greatest Show on Earth [серии 1-3 из 3] (Дэвид Уилсон / David Wilson) [2013 г., Документальный, познавательный, ис... skorpionN 5.98 GB
Показать сообщения:    

Текущее время: Сегодня 20:44

Часовой пояс: GMT



Вы не можете начинать темы
Вы не можете отвечать на сообщения
Вы не можете редактировать свои сообщения
Вы не можете удалять свои сообщения
Вы не можете голосовать в опросах
Вы не можете прикреплять файлы к сообщениям
Вы не можете скачивать файлы