Землеройка-убийца / Shrew Killer (Дженни Апостол /Jenny Apostol) [2014, Документальный, HDTVRip 720p]

 
Автор Сообщение

TorrentFilm ®

Пол:

Стаж: 2 года

Сообщений: 7741



Награды: Нет

Торрент-статистика

Создавать темы 30-Июн-2015 00:06

[Цитировать]

Землеройка-убийца / Shrew Killer Год выпуска: 2014
Страна: США
Студия: Red Rocks Films
Жанр: Документальный
Продолжительность: 00:43:56
Перевод: Профессиональный (дублированный)
Доп. инфо о переводе: Студия "Велес" (Олег Белов)
Режиссер: Дженни Апостол /Jenny Apostol
Описание: В области не столь далёкой владыки налетают с небес, чтобы убить, а простолюдины внизу должны копаться в земле, чтобы найти объедки. Здесь находится одно необыкновенное млекопитающее, Рыцарь Тьмы. Один из самых примечательных видов на Земле, закованный в абсолютно непримечательное тело. Это животное использует эхолокацию как летучая мышь и пользуется ядом как змея, но Мать Природа поставила его в тяжёлые условия. Оно должно есть каждые три часа — иначе наступит смерть. Оно не может упустить ни одной возможности поесть. Таково проклятие Землеройки-убийцы.

Тип релиза: HDTVRip 720p
Контейнер: MKV
Видео: H.264, 1280x720 (16:9), 5000 Kbps, 25 fps, 0,217 bit\pixel
Аудио RUS: AC3, 192 Кбит/с, 48 kHz, 2 ch
Аудио ENG: AC3, 192 Кбит/с, 48 kHz, 2 ch

MediaInfo

GeneralUnique ID : 212178907293101045972912171179757047225 (0x9FA02BCE044364F3A5E37F5D66948DB9)Complete name : D:\Видео\Для обработки\Killer Shrew HDTVRip-720p.2014.mkvFormat : MatroskaFormat version : Version 4 / Version 2File size : 1.65 GiBDuration : 43mn 55sOverall bit rate : 5 385 KbpsEncoded date : UTC 2015-06-19 06:38:27Writing application : mkvmerge v7.9.0 ('Birds') 64bitWriting library : libebml v1.3.1 + libmatroska v1.4.2DURATION : 00:43:55.680000000NUMBER_OF_FRAMES : 82365NUMBER_OF_BYTES : 63256320_STATISTICS_WRITING_APP : mkvmerge v7.9.0 ('Birds') 64bit_STATISTICS_WRITING_DATE_UTC : 2015-06-19 06:38:27_STATISTICS_TAGS : BPS DURATION NUMBER_OF_FRAMES NUMBER_OF_BYTES
VideoID : 1Format : AVCFormat/Info : Advanced Video CodecFormat profile : High@L4.1Format settings, CABAC : YesFormat settings, ReFrames : 8 framesCodec ID : V_MPEG4/ISO/AVCDuration : 43mn 55sBit rate : 5 000 KbpsWidth : 1 280 pixelsHeight : 720 pixelsDisplay aspect ratio : 16:9Frame rate mode : ConstantFrame rate : 25.000 fpsColor space : YUVChroma subsampling : 4:2:0Bit depth : 8 bitsScan type : ProgressiveBits/(Pixel*Frame) : 0.217Stream size : 1.50 GiB (91%)Writing library : x264 core 146 r2538 121396cEncoding settings : cabac=1 / ref=8 / deblock=1:0:0 / analyse=0x3:0x113 / me=umh / subme=9 / psy=1 / psy_rd=1.05:0.15 / mixed_ref=1 / me_range=32 / chroma_me=1 / trellis=2 / 8x8dct=1 / cqm=0 / deadzone=21,11 / fast_pskip=1 / chroma_qp_offset=-3 / threads=6 / lookahead_threads=1 / sliced_threads=0 / nr=0 / decimate=1 / interlaced=0 / bluray_compat=0 / constrained_intra=0 / bframes=7 / b_pyramid=2 / b_adapt=2 / b_bias=0 / direct=3 / weightb=1 / open_gop=0 / weightp=2 / keyint=250 / keyint_min=25 / scenecut=40 / intra_refresh=0 / rc_lookahead=60 / rc=2pass / mbtree=1 / bitrate=5000 / ratetol=1.0 / qcomp=0.60 / qpmin=0 / qpmax=69 / qpstep=4 / cplxblur=20.0 / qblur=0.5 / vbv_maxrate=14000 / vbv_bufsize=14000 / nal_hrd=none / filler=0 / ip_ratio=1.40 / aq=1:1.00Default : YesForced : No
Audio #1ID : 2Format : AC-3Format/Info : Audio Coding 3Mode extension : CM (complete main)Format settings, Endianness : BigCodec ID : A_AC3Duration : 43mn 55sBit rate mode : ConstantBit rate : 192 KbpsChannel(s) : 2 channelsChannel positions : Front: L RSampling rate : 48.0 KHzBit depth : 16 bitsCompression mode : LossyStream size : 60.3 MiB (4%)Language : RussianDefault : YesForced : No
Audio #2ID : 3Format : AC-3Format/Info : Audio Coding 3Mode extension : CM (complete main)Format settings, Endianness : BigCodec ID : A_AC3Duration : 43mn 55sBit rate mode : ConstantBit rate : 192 KbpsChannel(s) : 2 channelsChannel positions : Front: L RSampling rate : 48.0 KHzBit depth : 16 bitsCompression mode : LossyStream size : 60.3 MiB (4%)Language : EnglishDefault : NoForced : No

Скриншоты

[Профиль] [ЛС]
Кто просматривает тему:

Форум Тема Автор Размер
Rock (Рок) Белый проект - Последний день на Земле - 2015, MP3, 320 kbps достали все 54 MB
Chanson (Шансон) Сборник - Одна на всей земле. Академия хитов шансона - 2015, MP3, 256 kbps Magnat 913 MB
Фильмы 2014 года 20 000 дней на Земле / 20,000 Days on Earth (2014) HDRip | Р достали все 1.45 GB
Документальные HD 20 000 дней на Земле / 20,000 Days on Earth (Ян Форсайт & Джейн Поллард / Iain Forsyth & Jane Pollard) [2014, Великобритания, Документальный, музыкальный, BDRip 1080p] + Sub Rus + Original Eng TorrentFilm 7.45 GB
Документальные HD 20 000 дней на Земле / 20,000 Days on Earth (Ян Форсайт & Джейн Поллард / Iain Forsyth & Jane Pollard) [2014, Документальный, драма, музыка, BDRip 1080p] TorrentFilm 7.25 GB
Фильмы 2014 года 20 000 дней на Земле / 20,000 Days on Earth (Ян Форсис, Джейн Поллард) [Документальный, драма, музыка, 2014] BDRip | L1 BOSS 1.46 GB
R.G.TorrentFilm Video 24 часа на Земле / 24 Hours on Earth [Серии 1-2 из 2] (Джеймс Хонейборн / James Honeyborne) [2013 г., Документальный, флора, фауна, SATRip] Dub (Видеофильм ТВ) Один 777 999 MB
BBC BBC: Древняя Греция. Величайший спектакль на Земле / Ancient Greece: The Greatest Show on Earth [серии 1-3 из 3] (Дэвид Уилсон / David Wilson) [2013 г., Документальный, познавательный, ис... skorpionN 5.98 GB
Показать сообщения:    

Текущее время: Сегодня 12:46

Часовой пояс: GMT



Вы не можете начинать темы
Вы не можете отвечать на сообщения
Вы не можете редактировать свои сообщения
Вы не можете удалять свои сообщения
Вы не можете голосовать в опросах
Вы не можете прикреплять файлы к сообщениям
Вы не можете скачивать файлы