Зелёный Шершень в 3Д / The Green Hornet 3D (Мишель Гондри / Michel Gondry) [2011, боевик, комедия, криминал, BDRip-AVC] Half OverUnder / Вертикальная анаморфная стереопара

 
Автор Сообщение

TorrentFilm ®

Пол:

Стаж: 2 года

Сообщений: 7741



Награды: Нет

Торрент-статистика

Создавать темы 14-Апр-2015 00:02

[Цитировать]

Зелёный Шершень / The Green Hornet- Год выпуска: 2011
Страна: США
Жанр: боевик, комедия, криминал
Продолжительность: 01:58:53
Перевод: Профессиональный (дублированный)
Русские субтитры: есть
Оригинальная аудиодорожка: английский-Режиссер: Мишель Гондри / Michel Gondry
В ролях: Сет Роген, Джей Чоу, Кристоф Вальц, Кэмерон Диаз, Том Уилкинсон, Дэвид Харбор, Эдвард Джеймс Олмос, Джэми Харрис, Чад Коулмэн, Эдвард Ферлонг.
Описание: Сюжет фильма Зелёный шершень, Брид Рид — классический повеса, ребёнок богатых родителей прожигающий жизнь в своё удовольствие. Пьяные дебошы, красивые девушки, распутная жизнь — вот приоритеты парня. Но ничто, а точнее никто не вечен. Отец Рида умирает, оставив ему в наследство многомиллионную газетную империю. Немного разобравшись в делах своего отца, парень понимает что газетная империя полученная в наследство, осуществляла ещё одну важную роль — активную борьбу с криминалом. Взяв к себе в напарники бывшего помощника своего отца, Рид начинает действовать своими методами в неравной борьбе с бандитским миром.
-
  • Формат 3D Half OverUnder | Вертикальная анаморфная стереопара
-Качество: BDRip-AVC | Контейнер: MKV | Рип: Killbrain
Видео: 1920x1080 (16:9), 23.976 fps, x264@L4.1 ~11300 kbps
Аудио 1: Russian 48 kHz, AC3, 3/2 (L,C,R,l,r) + LFE ch, 448.00 kbps | BD CEE
Аудио 2: English 48 kHz, AC3, 3/2 (L,C,R,l,r) + LFE ch, 448.00 kbps | BD USA
Субтитры: русские форсированные, русские полные по гоблину, английские полные

Инфо

Format : Matroska
File size : 10.3 GiB
Duration : 1h 58mn
Overall bit rate : 12.4 Mbps
Movie name : The Green Hornet 3D (2011) by Killbrain
Encoded date : UTC 2012-10-16 18:22:25
Writing application : mkvmerge v5.8.0 ('No Sleep / Pillow') built on Sep 2 2012 15:37:04
Writing library : libebml v1.2.3 + libmatroska v1.3.0
Video
ID : 1
Format : AVC
Format/Info : Advanced Video Codec
Format profile : High@L4.1
Format settings, CABAC : Yes
Format settings, ReFrames : 4 frames
Codec ID : V_MPEG4/ISO/AVC
Duration : 1h 58mn
Bit rate : 11.3 Mbps
Width : 1 920 pixels
Height : 1 080 pixels
Display aspect ratio : 16:9
Frame rate : 23.976 fps
Color space : YUV
Chroma subsampling : 4:2:0
Bit depth : 8 bits
Scan type : Progressive
Bits/(Pixel*Frame) : 0.227
Stream size : 9.39 GiB (91%)
Title : The Green Hornet 3D (2011)
Writing library : x264 core 128 r2216 198a7ea
Encoding settings : cabac=1 / ref=4 / deblock=1:-3:-3 / analyse=0x3:0x113 / me=umh / subme=9 / psy=1 / psy_rd=1.00:0.15 / mixed_ref=1 / me_range=16 / chroma_me=1 / trellis=2 / 8x8dct=1 / cqm=0 / deadzone=21,11 / fast_pskip=1 / chroma_qp_offset=-3 / threads=3 / lookahead_threads=1 / sliced_threads=0 / slices=4 / nr=0 / decimate=1 / interlaced=0 / bluray_compat=0 / constrained_intra=0 / bframes=6 / b_pyramid=2 / b_adapt=2 / b_bias=0 / direct=3 / weightb=1 / open_gop=0 / weightp=2 / keyint=240 / keyint_min=23 / scenecut=40 / intra_refresh=0 / rc_lookahead=60 / rc=crf / mbtree=1 / crf=17.0 / qcomp=0.70 / qpmin=0 / qpmax=69 / qpstep=4 / vbv_maxrate=40000 / vbv_bufsize=40000 / crf_max=0.0 / nal_hrd=none / frame-packing=4 / ip_ratio=1.40 / aq=1:0.70
Language : English
Audio #1
ID : 2
Format : AC-3
Format/Info : Audio Coding 3
Mode extension : CM (complete main)
Codec ID : A_AC3
Duration : 1h 58mn
Bit rate mode : Constant
Bit rate : 448 Kbps
Channel(s) : 6 channels
Channel positions : Front: L C R, Side: L R, LFE
Sampling rate : 48.0 KHz
Bit depth : 16 bits
Stream size : 381 MiB (4%)
Title : AC3 / 5.1 ch / 448 kbps / Русский дубляж BD
Language : Russian
Audio #2
ID : 3
Format : AC-3
Format/Info : Audio Coding 3
Mode extension : CM (complete main)
Codec ID : A_AC3
Duration : 1h 58mn
Bit rate mode : Constant
Bit rate : 448 Kbps
Channel(s) : 6 channels
Channel positions : Front: L C R, Side: L R, LFE
Sampling rate : 48.0 KHz
Bit depth : 16 bits
Stream size : 381 MiB (4%)
Title : AC3 / 5.1 ch / 448 kbps / Original BD
Language : English
Text #1
ID : 4
Format : UTF-8
Codec ID : S_TEXT/UTF8
Codec ID/Info : UTF-8 Plain Text
Title : Forced
Language : Russian
Text #2
ID : 5
Format : UTF-8
Codec ID : S_TEXT/UTF8
Codec ID/Info : UTF-8 Plain Text
Title : Goblin
Language : Russian
Text #3
ID : 6
Format : UTF-8
Codec ID : S_TEXT/UTF8
Codec ID/Info : UTF-8 Plain Text
Title : Full
Language : English
Menu
00:00:00.000 : :Chapter 01
00:07:41.461 : :Chapter 02
00:14:11.267 : :Chapter 03
00:21:12.396 : :Chapter 04
00:27:48.750 : :Chapter 05
00:34:51.297 : :Chapter 06
00:40:23.879 : :Chapter 07
00:48:33.493 : :Chapter 08
00:56:27.467 : :Chapter 09
01:01:00.156 : :Chapter 10
01:13:51.718 : :Chapter 11
01:20:58.895 : :Chapter 12
01:25:55.191 : :Chapter 13
01:31:35.948 : :Chapter 14
01:40:03.622 : :Chapter 15
01:46:20.999 : :Chapter 16

Скриншоты

[Профиль] [ЛС]
Показать сообщения:    

Текущее время: Сегодня 14:53

Часовой пояс: GMT



Вы не можете начинать темы
Вы не можете отвечать на сообщения
Вы не можете редактировать свои сообщения
Вы не можете удалять свои сообщения
Вы не можете голосовать в опросах
Вы не можете прикреплять файлы к сообщениям
Вы не можете скачивать файлы