Зеленая пилюля (Юрий Скирда) [1974, Рисованный мультфильм, DVDRip]

 
Автор Сообщение

painkiller ®

Стаж: 2 года 3 месяца

Сообщений: 582



Награды: Нет

Торрент-статистика

Создавать темы 27-Авг-2014 15:29

[Цитировать]

Зеленая пилюля
Страна: СССР
Жанр: Рисованный мультфильм
Продолжительность: 00:09:32
Год выпуска: 1974
Русские субтитры: нет
Режиссёр: Юрий Скирда
Роли озвучивали: Н. Трофимова, З. Москаева, В. Коршун, В. Пупков
Описание: Проснулся утром один мальчик, вспомнил, что опять нужно идти в школу, и написал записку о том, что он заболел, нужно вызвать врача. Пришел рыжий странный доктор и дал пилюли, после которых в школу вообще идти не надо. Сказал, что они волшебные. Мальчик все-таки пошел в школу, но опять опоздал. Тогда-то он и решил принять пилюлю, после чего начались совершенно невероятные события ...
Доп. информация: „Киевнаучфильм“
Сценарист: Софья Прокофьева
Художники-постановщики: Л. Валуева, Юрий Скирда
Аниматоры: С. Березовская, Александр Лавров, Наталья Марченкова, Э. Перетятько, Адольф Педан, Михаил Титов, Александр Викен
Оператор: Анатолий Гаврилов
Директор: Иван Мазепа
Композитор: Л. Вербицкий
Звукооператор: Ирина Чефранова
Редактор: Владимир Гайдай
Качество: DVDRip
Формат: AVI
Видео: 704x528 (1.33:1), 25 fps, XviD build 65 ~2147 kbps avg, 0.23 bit/pixel
Аудио: 48 kHz, AC3 Dolby Digital, 1/0 (C) ch, ~96.00 kbps avg
Субтитры: нет

Подробные технические данные

Формат : AVIФормат/Информация : Audio Video InterleaveРазмер файла : 154 МбайтПродолжительность : 9 м. 32 с.Общий поток : 2254 Кбит/секПрограмма кодирования : VirtualDubModRus 1.5.10.2 (build 2542/release)Правообладатель : Rutracker.orgПримечание : DVDRip by dvdss
ВидеоИдентификатор : 0Формат : MPEG-4 VisualПрофиль формата : Advanced Simple@L5Параметр BVOP формата : 2Параметр QPel формата : ДаПараметр GMC формата : Без точки переходаПараметр матрицы формата : ВыборочнаяИдентификатор кодека : XVIDИдентификатор кодека/Подсказка : XviDПродолжительность : 9 м. 32 с.Битрейт : 2148 Кбит/секШирина : 704 пикс.Высота : 528 пикс.Соотношение сторон : 4:3Частота кадров : 25,000 кадр/секЦветовое пространство : YUVПодвыборка цветности : 4:2:0Битовая глубина : 8 битТип развёртки : ПрогрессивнаяМетод сжатия : С потерямиБит/(Пиксели*Кадры) : 0.231Размер потока : 147 Мбайт (95%)Библиотека кодирования : XviD 65
АудиоИдентификатор : 1Формат : AC-3Формат/Информация : Audio Coding 3Расширение режима : CM (complete main)Идентификатор кодека : 2000Продолжительность : 9 м. 32 с.Вид битрейта : ПостоянныйБитрейт : 96,0 Кбит/секКанал(ы) : 1 каналРасположение каналов : Front: CЧастота : 48,0 КГцБитовая глубина : 16 битМетод сжатия : С потерямиРазмер потока : 6,55 Мбайт (4%)Выравнивание : Разделение по промежуткамПродолжительность промежутка : 40 мс. (1,00 видеокадр)Время предзагрузки промежутка : 500 ms

Скриншоты

[Профиль] [ЛС]
Показать сообщения:    

Текущее время: Сегодня 04:20

Часовой пояс: GMT



Вы не можете начинать темы
Вы не можете отвечать на сообщения
Вы не можете редактировать свои сообщения
Вы не можете удалять свои сообщения
Вы не можете голосовать в опросах
Вы не можете прикреплять файлы к сообщениям
Вы не можете скачивать файлы