Зеленая книга / Green Book (2018) BDRip-AVC | Гоблин

 
Author Message

BOSS ®

Gender:

Longevity: 4 years 10 months

Posts: 14162

Location: ODESSA



: 22 ()

Top Releaser 2 (1) Mega Releaser 4 (1) Top Releaser 5 (1)
Торрент-статистика

Post 11-Aug-2019 19:23

[Quote]

Информация о фильме
Название: Зеленая книга
Оригинальное название: Green Book
Год выхода: 2018
Жанр: комедия, драма, биография
Режиссер: Питер Фаррелли / Peter Farrelly
В ролях: Вигго Мортенсен (Tony Lip), Махершала Али (Dr. Don Shirley), Линда Карделлини (Dolores), Себастьян Манискалко (Johnny Venere), Димитар Маринов (Oleg), Майк Хаттон (George), П.Дж. Бирн (Record Exec), Джозеф Кортезе (Gio Loscudo), Мэгги Никсон (Copa Coat Check Girl), Фон Льюис (Bobby Rydell), Джон Сортлэнд (Rydell Band Leader), Дон Старк (Jules Podell)
О фильме:
1960-е годы. После закрытия нью-йоркского ночного клуба на ремонт вышибала Тони по прозвищу Болтун ищет подработку на пару месяцев. Как раз в это время Дон Ширли, утонченный светский лев, богатый и талантливый чернокожий музыкант, исполняющий классическую музыку, собирается в турне по южным штатам, где ещё сильны расистские убеждения и царит сегрегация. Он нанимает Тони в качестве водителя, телохранителя и человека, способного решать текущие проблемы. У этих двоих так мало общего, и эта поездка навсегда изменит жизнь обоих.
Официальный сайт
Страна: США
Студия: Universal Pictures, DreamWorks, Participant Media
Продолжительность: 02:09:43
Перевод: Авторский (одноголосый, закадровый) Дмитрий Пучков (Гоблин)
Файл
Кодек: H.264
Качество: BDRip
Видео: 1024x512 (2:1), 23.976 fps, 2319 kbps
Аудио: AC3, 48 KHz, 2 ch, 224 kbps, AVO Д.Пучков (Goblin)
Семпл

MediaInfo:

General
Unique ID : 256530930226200187260845641480033844006 (0xC0FE0F5D5DEA45F0FE9EF78CD130BB26)
Complete name : F:FilmsZelenaya.Kniga.2018.BDRip-AVC.GOBLIN.mkv
Format : Matroska
Format version : Version 4 / Version 2
File size : 2.29 GiB
Duration : 2 h 9 min
Overall bit rate : 2 531 kb/s
Movie name : Green.Book.2018.Peter.Farrelly
Encoded date : UTC 2019-08-11 13:28:55
Writing application : mkvmerge v36.0.0 ('Is That Jazz?') 64-bit
Writing library : libebml v1.3.9 + libmatroska v1.5.2
Cover : Yes
Attachments : cover.jpg
Video
ID : 1
Format : AVC
Format/Info : Advanced Video Codec
Format profile : High@L4.1
Format settings : CABAC / 11 Ref Frames
Format settings, CABAC : Yes
Format settings, ReFrames : 11 frames
Codec ID : V_MPEG4/ISO/AVC
Duration : 2 h 9 min
Bit rate : 2 319 kb/s
Width : 1 024 pixels
Height : 512 pixels
Display aspect ratio : 2.000
Frame rate mode : Constant
Frame rate : 23.976 (24000/1001) FPS
Color space : YUV
Chroma subsampling : 4:2:0
Bit depth : 8 bits
Scan type : Progressive
Bits/(Pixel*Frame) : 0.184
Stream size : 2.04 GiB (89%)
Title : HQ-ViDEO // HRIME
Writing library : x264 core 157 r2969 d4099dd
Encoding settings : cabac=1 / ref=11 / deblock=1:-2:-1 / analyse=0x3:0x133 / me=umh / subme=11 / psy=1 / psy_rd=1.00:0.00 / mixed_ref=1 / me_range=32 / chroma_me=1 / trellis=2 / 8x8dct=1 / cqm=0 / deadzone=21,11 / fast_pskip=0 / chroma_qp_offset=-2 / threads=6 / lookahead_threads=1 / sliced_threads=0 / nr=0 / decimate=0 / interlaced=0 / bluray_compat=0 / constrained_intra=0 / bframes=10 / b_pyramid=2 / b_adapt=2 / b_bias=0 / direct=3 / weightb=1 / open_gop=0 / weightp=2 / keyint=230 / keyint_min=23 / scenecut=40 / intra_refresh=0 / rc_lookahead=60 / rc=2pass / mbtree=0 / bitrate=2319 / ratetol=1.0 / qcomp=0.65 / qpmin=0 / qpmax=69 / qpstep=4 / cplxblur=20.0 / qblur=0.5 / vbv_maxrate=50000 / vbv_bufsize=62500 / nal_hrd=none / filler=0 / ip_ratio=1.40 / pb_ratio=1.30 / aq=3:0.85
Language : English
Default : Yes
Forced : No
Audio
ID : 2
Format : AC-3
Format/Info : Audio Coding 3
Codec ID : A_AC3
Duration : 2 h 9 min
Bit rate mode : Constant
Bit rate : 224 kb/s
Channel(s) : 2 channels
Channel positions : Front: L R
Sampling rate : 48.0 kHz
Frame rate : 31.250 FPS (1536 SPF)
Bit depth : 16 bits
Compression mode : Lossy
Stream size : 208 MiB (9%)
Title : VO Puchkov (Goblin)
Language : Russian
Service kind : Complete Main
Default : Yes
Forced : No

Скриншоты

[Profile] [PM]
Display posts from previous:    

The time now is: Today 14:58

All times are GMT



You cannot post new topics in this forum
You cannot reply to topics in this forum
You cannot edit your posts in this forum
You cannot delete your posts in this forum
You cannot vote in polls in this forum
You cannot attach files in this forum
You cannot download files in this forum