Здравствуй, папа, Новый год / Daddy's Home (2015) BDRip-AVC | Лицензия

 
Автор Сообщение

достали все ®

Пол:

Стаж: 1 год 8 месяцев

Сообщений: 6554



Награды: 12 (Подробнее)

Mega Seeder 5 (Количество: 1) Mega Seeder 3 (Количество: 1) За внесенный вклад в развитие сайта (Количество: 1)
Торрент-статистика

Создавать темы 15-Апр-2016 02:56

[Цитировать]

Информация о фильме
Название: Здравствуй, папа, Новый год
Оригинальное название: Daddy's Home
Год выпуска: 2015
Жанр: Комедия
Режиссер: Шон Андерс
В ролях: Уилл Феррелл, Марк Уолберг, Линда Карделлини, Томас Хейден Чёрч, Скарлет Эстевез, Оуэн Ваккаро, Бобби Каннавейл, Хэннибал Бёресс, Билл Бёрр, Джейми Денбо, Марк Л. Янг, Мэттью Пол Мартинес, Дэйв Дэвис, Джеймс Хэрлон Палмер, Райли Корбин, ЛаДжесси Смит, Билли Джонстон, Оливия Рени Дюпепе, Билли Слотер, ЛаМоника Гаррет
О фильме:
Добрейший семьянин, топ-менеджер крупной радиостанции, очень старается стать самым лучшим папочкой для своих приемных детей. Но ребята не в восторге от его сиропных воспитательных методов. Ситуация осложняется, когда приезжает родной отец детей, бунтарь и тунеядец. Папашам предстоит выяснить, кто в доме хозяин.
Выпущено: США, Gary Sanchez Productions, Good Universe, Paramount Pictures
Продолжительность: 01:36:01
Перевод: Дублированный
Субтитры: Русские, английские
Файл
Кодек: MPEG-4 AVC
Качество: BDRip-AVC
Видео: 1024x576, 3000 кб/c
Звук: Русский, английский (АС3, 6 ch, 448 Кбит/с)

Скриншоты


Медиа-Инфо

raw [info]: 1024x576p 1:1 @ 24000/1001 fps (cfr)
x264 [info]: using SAR=1/1
x264 [info]: using cpu capabilities: MMX2 SSE2Fast LZCNT
x264 [info]: profile High, level 4.1
x264 [info]: frame I:1560 Avg QP:12.68 size:122441
x264 [info]: frame P:30318 Avg QP:16.77 size: 31475
x264 [info]: frame B:106270 Avg QP:17.79 size: 9534
x264 [info]: consecutive B-frames: 2.7% 2.2% 8.6% 20.7% 18.0% 39.5% 4.6% 1.2% 0.9% 0.5% 0.3% 0.2% 0.2% 0.1% 0.1% 0.0% 0.3%
===========================================================================================
Общее
Уникальный идентификатор : 206470506174172957543364112622430395010 (0x9B54C5E66E9611CF933DF78DE36F1A82)
Полное имя : G:Zdravstvujte.papa.Noviy.god.2015.x264.BDRip.(AVC).ExKinoRay.mkv
Формат : Matroska
Версия формата : Version 2
Размер файла : 2,53 Гбайт
Продолжительность : 1 ч. 36 м.
Общий поток : 3767 Кбит/сек
Дата кодирования : UTC 2016-04-08 07:19:23
Программа кодирования : mkvmerge v7.8.0 ('River Man') 32bit built on Apr 3 2015 12:11:22
Библиотека кодирования : libebml v1.3.1 + libmatroska v1.4.2
Видео
Идентификатор : 1
Формат : AVC
Формат/Информация : Advanced Video Codec
Профиль формата : High@L4.1
Параметр CABAC формата : Да
Параметр ReFrames формата : 14 кадров
Идентификатор кодека : V_MPEG4/ISO/AVC
Продолжительность : 1 ч. 36 м.
Битрейт : 3000 Кбит/сек
Ширина : 1024 пикселя
Высота : 576 пикселей
Соотношение сторон : 16:9
Режим частоты кадров : Постоянный
Частота кадров : 23,976 кадра/сек
Цветовое пространство : YUV
Субдискретизация насыщенности : 4:2:0
Битовая глубина : 8 бит
Тип развёртки : Прогрессивная
Бит/(Пиксели*Кадры) : 0.212
Размер потока : 1,96 Гбайт (78%)
Библиотека кодирования : x264 core 146 r2538 121396c
Настройки программы : cabac=1 / ref=14 / deblock=1:-3:-3 / analyse=0x3:0x113 / me=umh / subme=11 / psy=1 / psy_rd=1.05:0.10 / mixed_ref=1 / me_range=32 / chroma_me=1 / trellis=2 / 8x8dct=1 / cqm=0 / deadzone=21,11 / fast_pskip=0 / chroma_qp_offset=-3 / threads=6 / lookahead_threads=1 / sliced_threads=0 / nr=0 / decimate=0 / interlaced=0 / bluray_compat=0 / constrained_intra=0 / bframes=16 / b_pyramid=2 / b_adapt=2 / b_bias=0 / direct=3 / weightb=1 / open_gop=0 / weightp=2 / keyint=240 / keyint_min=23 / scenecut=40 / intra_refresh=0 / rc_lookahead=40 / rc=2pass / mbtree=0 / bitrate=3000 / ratetol=1.0 / qcomp=0.63 / qpmin=0 / qpmax=39 / qpstep=4 / cplxblur=20.0 / qblur=0.5 / vbv_maxrate=50000 / vbv_bufsize=62500 / nal_hrd=none / filler=0 / ip_ratio=1.40 / pb_ratio=1.30 / aq=3:1.00
Язык : English
Default : Да
Forced : Нет
Основные цвета : BT.709
Характеристики трансфера : BT.709
Коэффициенты матрицы : BT.709
colour_range : Limited
Аудио #1
Идентификатор : 2
Формат : AC-3
Формат/Информация : Audio Coding 3
Расширение режима : CM (complete main)
Параметр Endianness формата : Big
Идентификатор кодека : A_AC3
Продолжительность : 1 ч. 36 м.
Вид битрейта : Постоянный
Битрейт : 448 Кбит/сек
Каналы : 6 каналов
Расположение каналов : Front: L C R, Side: L R, LFE
Частота : 48,0 КГц
Битовая глубина : 16 бит
Метод сжатия : С потерями
Размер потока : 308 Мбайт (12%)
Язык : Russian
Default : Да
Forced : Да
Аудио #2
Идентификатор : 3
Формат : AC-3
Формат/Информация : Audio Coding 3
Расширение режима : CM (complete main)
Параметр Endianness формата : Big
Идентификатор кодека : A_AC3
Продолжительность : 1 ч. 36 м.
Вид битрейта : Постоянный
Битрейт : 448 Кбит/сек
Каналы : 6 каналов
Расположение каналов : Front: L C R, Side: L R, LFE
Частота : 48,0 КГц
Битовая глубина : 16 бит
Метод сжатия : С потерями
Размер потока : 308 Мбайт (12%)
Язык : English
Default : Нет
Forced : Да
Текст #1
Идентификатор : 4
Формат : UTF-8
Идентификатор кодека : S_TEXT/UTF8
Идентификатор кодека/Информация : UTF-8 Plain Text
Заголовок : Forced
Язык : Russian
Default : Да
Forced : Да
Текст #2
Идентификатор : 5
Формат : UTF-8
Идентификатор кодека : S_TEXT/UTF8
Идентификатор кодека/Информация : UTF-8 Plain Text
Язык : Russian
Default : Нет
Forced : Да
Текст #3
Идентификатор : 6
Формат : UTF-8
Идентификатор кодека : S_TEXT/UTF8
Идентификатор кодека/Информация : UTF-8 Plain Text
Язык : English
Default : Нет
Forced : Да
Текст #4
Идентификатор : 7
Формат : UTF-8
Идентификатор кодека : S_TEXT/UTF8
Идентификатор кодека/Информация : UTF-8 Plain Text
Заголовок : Forced
Язык : English
Default : Нет
Forced : Да
Меню
00:00:00.000 : en:Chapter 1
00:09:23.729 : en:Chapter 2
00:19:57.070 : en:Chapter 3
00:28:45.014 : en:Chapter 4
00:35:35.049 : en:Chapter 5
00:44:05.768 : en:Chapter 6
00:55:54.726 : en:Chapter 7
01:03:21.047 : en:Chapter 8
01:12:08.198 : en:Chapter 9
01:21:58.204 : en:Chapter 10
01:31:15.261 : en:Chapter 11
Автор Релиза:
[Профиль] [ЛС]
Показать сообщения:    

Текущее время: Сегодня 16:58

Часовой пояс: GMT



Вы не можете начинать темы
Вы не можете отвечать на сообщения
Вы не можете редактировать свои сообщения
Вы не можете удалять свои сообщения
Вы не можете голосовать в опросах
Вы не можете прикреплять файлы к сообщениям
Вы не можете скачивать файлы