Звёздный путь: Дискавери / Star Trek: Discovery (Сезон 2 , Серия 1-14 из 14) ( Акива Голдсман, Адам Кэйн, Ли Роуз) [2019,Приключения, фантастика ,WEB-DLRip 1080p] [LostFilm+TVShows+Eng]+[Subs Rus , ENG]

 
Author Message

Враг Нароода ®

Gender:

Longevity: 4 years 3 months

Posts: 277



: 2 ()

Mega Seeder 1 (1) За внесенный вклад в развитие сайта (1)
Торрент-статистика

Post 20-Jan-2019 19:27

[Quote]

-- --Звёздный путь: Дискавери / Star Trek: Discovery Сезон 2 , Серия 1-14 из 14 - Полный Комплект-- --Год выпуска: 2019
Выпущено: США , CBS Television Studios, Living Dead Guy Productions, Paramount Television, Roddenberry Entertainment, Secret Hideout
Жанр: Приключения, фантастика
Продолжительность:01:00:00
Сезон:2
Серия:1-14
Количество серий в сезоне:14--Озвучка : Профессиональный многоголосый - LostFilm - Русский
Озвучка : Профессиональный многоголосый - TVShows - Русский
Озвучка : Профессиональный многоголосый -Английский - Оригинал
Субтитры: Russian , English, English SDH
--Релиз Без Рекламы --Официальный сайт
MDB --Режиссеры:
Акива Голдсман, Адам Кэйн, Ли Роуз--В ролях: Джейсон Айзекс, Даг Джонс, Шазад Латиф, Сонеква Мартин, Молик Панчоли, Энтони Рэпп, Мишель Йео, Кеннет Митчелл, Дэймон Рунян-- Действие сериала разворачивается за десять лет до событий, описанных в «Звездном пути». В центре сюжета оказывается экипаж исследовательского корабля под названием «Шень Чжоу», отправленного на границу пространства федерации, чтобы расследовать повреждение одной из межзвездных антенн. Изучив выведенную из строя антенну, командование корабля приходит к выводу, что она была повреждена не естественным путём, как будто этим кто-то намеренно хотел привлечь внимание федерации. Вскоре датчики звездолёта засекают неизвестный объект, находящийся в поле астероидов, сканирование которого оказывается невозможным из-за помех. При более детальном обследовании объект оказывается космическим судном, принадлежащим клингонам – гордой и воинственной расе, представители которой решили объединить разрозненные дома, чтобы возродить былое величие Империи. В тот момент экипаж «Шень Чжоу» еще не догадывался, что они оказались на пороге новой войны.-- --Качество :WEB-DLRip 1080p
Формат: MKV
Видео кодек: H264
Видео: 8971Кбит/сек,1920х1080(16.9),в 24.000кадр/сек,AVC (High@L4)(CABAC/4 Ref Frames)--Аудио Кодек:AC3
Аудио #1:AC3 640 Kbps, 48.0 KHz, 6 ch- Lostfilm -Русский
Аудио #2:AC3 384 Kbps, 48.0 KHz, 6 ch- TVShows -Русский
Аудио #3: AC3, 640 Kbps, 48.0 KHz,6 ch - - English - Оригинал--

Доп. информация:

Звуковая дорожка сделана путем наложения чистого голоса озвучивателей на центральный канал оригинальной дорожки. Качество идентично звуковой дорожке.
--

Список эпизодов сезона


2 сезон 1 серия - Брат - Brother
2 сезон 2 серия - Новый Эдем - New Eden
2 сезон 3 серия - Точка света - Point of Light
2 сезон 4 серия - Монетка для Харона - An Obol for Charon
2 сезон 5 серия - Святые покровители несовершенства - Saints of Imperfection
2 сезон 6 серия - Раскаты грома - The Sound of Thunder
2 сезон 7 серия - Свет и тень - Light and Shadows
2 сезон 8 серия - Если память не подводит - If Memory Serves
2 сезон 9 серия - Проект «Дедал» - Project Daedalus
2 сезон 10 серия - Красный ангел - The Red Angel
2 сезон 11 серия - Бесконечная вечность - Perpetual Infinity
2 сезон 12 серия- Долиной смертной тени - Through the Valley of Shadows
2 сезон 13 серия - Светлая печаль. Часть 1 - Such Sweet Sorrow: Part 1
2 сезон 14 серия - Светлая печаль. Часть 2 - Such Sweet Sorrow: Part 2
--

MediaInfo сезона

Общее
Уникальный идентификатор : 332581482243220021118664598495669844105 (0xFA34DD12462CA23D6E08485F03E0F889)
Полное имя : E:\Nikolai.Baranov & PIRATIYA\Звездный путь Дискавери - Star Trek Discovery\Star_Trek_Discovery_2019_S02_N.B_HD_1080_LostFilm_Rus_Eng\Star_Trek_Discovery_S02Е01_Н264_DD5.1_N.B_HD_1080_LostFilm_Rus_Eng.mkv
Формат : Matroska
Версия формата : Version 4
Размер файла : 4,57 Гбайт
Продолжительность : 1 ч. 1 м.
Общий поток : 10,6 Мбит/сек
Название фильма : Star Trek Discovery 2019 S02Е01 @ Nikolai.Baranov & PIRATIYA
Дата кодирования : UTC 2019-02-07 19:02:07
Программа кодирования : mkvmerge v30.1.0 ('Forever And More') 64-bit
Библиотека кодирования : libebml v1.3.6 + libmatroska v1.4.9
Обложка : Yes
Attachments : small_cover.jpg / small_cover_land.jpg / cover.jpg / cover_land.jpg
Видео
Идентификатор : 1
Формат : AVC
Формат/Информация : Advanced Video Codec
Профиль формата : High@L4
Настройки формата : CABAC / 4 Ref Frames
Параметр CABAC формата : Да
Параметр RefFrames формата : 4 кадра
Идентификатор кодека : V_MPEG4/ISO/AVC
Продолжительность : 1 ч. 1 м.
Вид битрейта : Постоянный
Битрейт : 8971 Кбит/сек
Номинальный битрейт : 10000 Кбит/сек
Ширина : 1920 пикселей
Высота : 1080 пикселей
Соотношение сторон : 16:9
Режим частоты кадров : Постоянный
Частота кадров : 24,000 кадра/сек
Цветовое пространство : YUV
Субдискретизация насыщенности : 4:2:0
Битовая глубина : 8 бит
Тип развёртки : Прогрессивная
Бит/(Пиксели*Кадры) : 0.180
Размер потока : 3,86 Гбайт (84%)
Заголовок : Star_Trek_Discovery_S02Е01_Н264_DD5.1_N.B_HD_1080_LostFilm_Rus_Eng
Язык : Russian
Default : Да
Forced : Нет
Цветовой диапазон : Limited
Основные цвета : BT.709
Характеристики трансфера : BT.709
Коэффициенты матрицы : BT.709
Аудио #1
Идентификатор : 5
Формат : AC-3
Формат/Информация : Audio Coding 3
Коммерческое название : Dolby Digital
Идентификатор кодека : A_AC3
Продолжительность : 1 ч. 1 м.
Вид битрейта : Постоянный
Битрейт : 640 Кбит/сек
Каналы : 6 каналов
Channel layout : L R C LFE Ls Rs
Частота : 48,0 КГц
Частота кадров : 31,250 кадров/сек (1536 SPF)
Битовая глубина : 16 бит
Метод сжатия : С потерями
Размер потока : 282 Мбайт (6%)
Заголовок : MVO LostFilm @DD5.1 AC3, 640 Kbps, 48.0 KHz, 6 ch
Язык : Russian
ServiceKind/String : Complete Main
Default : Да
Forced : Нет
Аудио #2
Идентификатор : 6
Формат : AC-3
Формат/Информация : Audio Coding 3
Коммерческое название : Dolby Digital
Идентификатор кодека : A_AC3
Продолжительность : 1 ч. 1 м.
Вид битрейта : Постоянный
Битрейт : 640 Кбит/сек
Каналы : 6 каналов
Channel layout : L R C LFE Ls Rs
Частота : 48,0 КГц
Частота кадров : 31,250 кадров/сек (1536 SPF)
Битовая глубина : 16 бит
Метод сжатия : С потерями
Размер потока : 282 Мбайт (6%)
Заголовок : Original@DD5.1 AC3 ,640 Kbps, 48.0 KHz, 6 ch
Язык : English
ServiceKind/String : Complete Main
Default : Нет
Forced : Нет
Аудио #3
Идентификатор : 7
Формат : AC-3
Формат/Информация : Audio Coding 3
Коммерческое название : Dolby Digital
Идентификатор кодека : A_AC3
Продолжительность : 1 ч. 1 м.
Вид битрейта : Постоянный
Битрейт : 384 Кбит/сек
Каналы : 6 каналов
Channel layout : L R C LFE Ls Rs
Частота : 48,0 КГц
Частота кадров : 31,250 кадров/сек (1536 SPF)
Битовая глубина : 16 бит
Метод сжатия : С потерями
Размер потока : 169 Мбайт (4%)
Заголовок : MVO TVShows @DD5.1 AC3, 384 Kbps, 48.0 KHz, 6 ch
Язык : Russian
ServiceKind/String : Complete Main
Default : Нет
Forced : Нет
Текст #1
Идентификатор : 2
Формат : UTF-8
Идентификатор кодека : S_TEXT/UTF8
Идентификатор кодека/Информация : UTF-8 Plain Text
Продолжительность : 59 м. 2 с.
Битрейт : 114 бит/сек
ElementCount : 790
Размер потока : 49,3 Кбайт (0%)
Заголовок : Rus
Язык : Russian
Default : Да
Forced : Нет
Текст #2
Идентификатор : 3
Формат : UTF-8
Идентификатор кодека : S_TEXT/UTF8
Идентификатор кодека/Информация : UTF-8 Plain Text
Продолжительность : 1 ч. 0 м.
Битрейт : 76 бит/сек
ElementCount : 1090
Размер потока : 34,1 Кбайт (0%)
Заголовок : Original - SDH
Язык : English
Default : Нет
Forced : Нет
Текст #3
Идентификатор : 4
Формат : UTF-8
Идентификатор кодека : S_TEXT/UTF8
Идентификатор кодека/Информация : UTF-8 Plain Text
Продолжительность : 1 ч. 0 м.
Битрейт : 76 бит/сек
ElementCount : 1090
Размер потока : 34,1 Кбайт (0%)
Заголовок : Original
Язык : English
Default : Нет
Forced : Нет
Меню
00:00:00.000 : :Глава 01 / :Глава 01 / :Глава 01 / :Глава 01 / :Глава 01 / :Глава 01 / :Глава 01
--

Скриншоты

-- --

Как закачать отдельный файл

1. Открыть торрент
2. Снять галки с тех файлов торрента, которые мы не хотим закачивать. Оставляем только на нужных нам файлах (файле).
3. Нажать О.К.
В клиенте utorrent
Инструкция
1) Открыть торрент

2) Снять галки с тех файлов торрента, которые мы не хотим закачивать:
* либо вручную, снимая с каждого файла галку( скрин №1)
* либо, нажав кнопку "Снять метки (Select None)", сняв сразу со всех файлов(скрин №2)
№1

№2

Оставляем только на нужных нам файлах (файле).

3)Нажать О.К
-- -- --Внимание!!! 25.04. 2019. РАЗДАЧА ОБНОВЛЕНА. ДОБАВЛЕНА - 14-СЕРИЯ. ФИНАЛ СЕЗОНА . ОБНОВИТЕ ТОРЕНТ ФАЙЛ. ПРИЯТНОГО ПРОСМОТРА . Поблагодарить:
ЯД: 410017546713876
--Релиз от: Nikolai.Baranov & PIRATIYA -- -- -- --Время раздачи : 24/7--
[Profile] [PM]
Display posts from previous:    

The time now is: Today 11:45

All times are GMT



You cannot post new topics in this forum
You cannot reply to topics in this forum
You cannot edit your posts in this forum
You cannot delete your posts in this forum
You cannot vote in polls in this forum
You cannot attach files in this forum
You cannot download files in this forum