Звёздные войны: Эпизод 6 – Возвращение Джедая / Star Wars: Episode VI - Return of the Jedi (1983) BDRip 720p | D, P, P2, A

 
Автор Сообщение

Russian Mafia ®

Пол:

Стаж: 1 год 8 месяцев

Сообщений: 4257



Награды: 10 (Подробнее)

Mega Seeder 2 (Количество: 1) Top Releaser 5 (Количество: 1) За внесенный вклад в развитие сайта (Количество: 1)
Торрент-статистика

Создавать темы 22-Июл-2016 19:12

[Цитировать]

Звёздные войны: Эпизод 6 – Возвращение ДжедаяStar Wars: Episode VI - Return of the Jedi«The Saga Continues»- Страна: США
Жанр: фантастика, фэнтези, боевик, приключения
Год выпуска: 1983
Продолжительность: 02:14:47
Перевод: Профессиональный (полное дублирование), Профессиональный (многоголосый, закадровый), Профессиональный (двухголосый, закадровый), Авторский, Оригинальный
Субтитры: русские (2 x Forced + 3 x Full + 2 x комментарии), английские (Forced + Full).-Режиссер: Ричард Маркуэнд / Richard Marquand-В ролях: Марк Хэмилл (Luke Skywalker), Харрисон Форд (Han Solo), Кэрри Фишер (Princess Leia), Билли Ди Уильямс (Lando Calrissian), Энтони Дэниелс (C-3PO), Питер Мейхью (Chewbacca), Себастьян Шоу (Anakin Skywalker), Иен МакДермид (The Emperor), Фрэнк Оз (Yoda, озвучка), Джеймс Эрл Джонс (Darth Vader, озвучка), Дэвид Праус (Darth Vader), Алек Гиннесс (Ben «Obi-Wan» Kenobi)
Дублёры: Михаил Тихонов (Luke Skywalker), Даниил Эльдаров (Luke Skywalker (2010)), Юрий Деркач (Han Solo), Денис Беспалый (Han Solo (2010)), Марианна Шульц (Princess Leia (2010)), Игорь Тарадайкин (Lando Calrissian), Андрей Симанов (Lando Calrissian (2010)), Никита Прозоровский (C-3PO), Александр Коврижных (C-3PO (2010)), Дальвин Щербаков (Anakin Skywalker; Darth Vader), Владимир Антоник (Anakin Skywalker (2010); Darth Vader (2010)), Алексей Золотницкий (The Emperor)-Описание: В заключительном шестом эпизоде «Звездных войн» Дарт Вейдер создает вторую «Звезду Смерти». Он объединяет все силы зла, чтобы с помощью этого смертоносного оружия нанести последний сокрушительный удар по повстанцам и их союзникам. Люк Скайуокер вместе с принцессой Лейей и верными дроидами R2D2 и C-3PO отправляется спасать своего друга Хана Соло, который попал в плен к отвратительному Джаббе Хатту — могущественному повелителю преступников. Повстанцы высаживаются на планету Эндор, чтобы оттуда вместе с Люком и его отрядом предпринять последнюю атаку на Имперский флот, атаку, от которой зависит судьба Галактики. В этом эпизоде Люк Скайуокер и Дарт Вейдер встречаются в последний раз… ибо из поединка между отцом и сыном живым выйдет только один…-
MPAA: PG - Рекомендуется присутствие родителей-Семпл-Качество: BDRip
Контейнер: MKV
Видео: AVC, 1280x544 (2.35:1), 6647 kbps, 23,976 fps, 0,398 bpp
Аудио №1: русский / AC3 / 5.1 / 48 kHz / 448 kbps / Дубляж
Аудио №2: русский / AC3 / 5.1 / 48 kHz / 448 kbps / Дубляж ( ОРТ )
Аудио №3: русский / AC3 / 5.1 / 48 kHz / 384 kbps / MVO ( Киномания )
Аудио №4: русский / AC3 / 2.0 / 48 kHz / 192 kbps / MVO ( Лазер Видео )
Аудио №5: русский / AC3 / 5.1 / 48 kHz / 448 kbps / DVO ( П.Гланц и И.Королёва )
Аудио №6: русский / AC3 / 5.1 / 48 kHz / 448 kbps / DVO ( Tycoon )
Аудио №7: русский / AC3 / 5.1 / 48 kHz / 448 kbps / AVO ( Гаврилов )
Аудио №8: русский / AC3 / 5.1 / 48 kHz / 448 kbps / AVO ( Живов )
Аудио №9: русский / AC3 / 2.0 / 48 kHz / 256 kbps / AVO ( Володарский )
Аудио №10: английский / AC3 / 5.1 / 48 kHz / 448 kbps
Аудио №11: английский / AC3 / 2.0 / 48 kHz / 224 kbps / Аудиокомментарий №1
Аудио №12: английский / AC3 / 2.0 / 48 kHz / 224 kbps / Аудиокомментарий №2
Навигация по главам: есть-

Media Info

Формат : Matroska
Версия формата : Version 2
Размер файла : 10,4 Гбайт
Продолжительность : 2 ч. 14 м.
Общий поток : 11,1 Мбит/сек
Название фильма : = Звездные войны: Эпизод 6 – Возвращение Джедая / Star Wars: Episode VI - Return of the Jedi (1983) BDRip 720p by SC Kosmos =
Дата кодирования : UTC 2016-07-14 09:56:32
Программа кодирования : mkvmerge v5.8.0 ('No Sleep / Pillow') built on Sep 2 2012 15:37:04
Библиотека кодирования : libebml v1.2.3 + libmatroska v1.3.0
Attachment : Yes
Видео
Идентификатор : 1
Формат : AVC
Формат/Информация : Advanced Video Codec
Профиль формата : High@L4.1
Параметр CABAC формата : Да
Параметр ReFrames формата : 10 кадров
Идентификатор кодека : V_MPEG4/ISO/AVC
Продолжительность : 2 ч. 14 м.
Битрейт : 6647 Кбит/сек
Ширина : 1280 пикселей
Высота : 544 пикселя
Соотношение сторон : 2,35:1
Режим частоты кадров : Постоянный
Частота кадров : 23,976 кадра/сек
Цветовое пространство : YUV
Субдискретизация насыщенности : 4:2:0
Битовая глубина : 8 бит
Тип развёртки : Прогрессивная
Бит/(Пиксели*Кадры) : 0.398
Размер потока : 6,06 Гбайт (58%)
Заголовок : Звездные войны: Эпизод 6 – Возвращение Джедая / Star Wars: Episode VI - Return of the Jedi (1983) BDRip 720p by SC Kosmos
Библиотека кодирования : x264 core 146 r2538 121396c
Настройки программы : cabac=1 / ref=10 / deblock=1:-3:-3 / analyse=0x3:0x113 / me=umh / subme=11 / psy=1 / psy_rd=1.00:0.05 / mixed_ref=1 / me_range=32 / chroma_me=1 / trellis=2 / 8x8dct=1 / cqm=0 / deadzone=21,11 / fast_pskip=0 / chroma_qp_offset=-3 / threads=12 / lookahead_threads=3 / sliced_threads=0 / nr=0 / decimate=0 / interlaced=0 / bluray_compat=0 / constrained_intra=0 / bframes=10 / b_pyramid=2 / b_adapt=2 / b_bias=0 / direct=3 / weightb=1 / open_gop=0 / weightp=2 / keyint=240 / keyint_min=23 / scenecut=40 / intra_refresh=0 / rc_lookahead=50 / rc=2pass / mbtree=0 / bitrate=6647 / ratetol=1.0 / qcomp=0.60 / qpmin=0 / qpmax=69 / qpstep=4 / cplxblur=20.0 / qblur=0.5 / vbv_maxrate=62500 / vbv_bufsize=78125 / nal_hrd=none / filler=0 / ip_ratio=1.40 / pb_ratio=1.30 / aq=1:1.00
Язык : English
Default : Да
Forced : Нет
Основные цвета : BT.709
Характеристики трансфера : BT.709
Коэффициенты матрицы : BT.709
Аудио #1
Идентификатор : 2
Формат : AC-3
Формат/Информация : Audio Coding 3
Расширение режима : CM (complete main)
Параметр Endianness формата : Big
Идентификатор кодека : A_AC3
Продолжительность : 2 ч. 14 м.
Вид битрейта : Постоянный
Битрейт : 448 Кбит/сек
Каналы : 6 каналов
Расположение каналов : Front: L C R, Side: L R, LFE
Частота : 48,0 КГц
Битовая глубина : 16 бит
Метод сжатия : С потерями
Размер потока : 432 Мбайт (4%)
Заголовок : Дубляж
Язык : Russian
Default : Да
Forced : Нет
Аудио #2
Идентификатор : 3
Формат : AC-3
Формат/Информация : Audio Coding 3
Расширение режима : CM (complete main)
Параметр Endianness формата : Big
Идентификатор кодека : A_AC3
Продолжительность : 2 ч. 14 м.
Вид битрейта : Постоянный
Битрейт : 448 Кбит/сек
Каналы : 6 каналов
Расположение каналов : Front: L C R, Side: L R, LFE
Частота : 48,0 КГц
Битовая глубина : 16 бит
Метод сжатия : С потерями
Размер потока : 432 Мбайт (4%)
Заголовок : Дубляж ( ОРТ )
Язык : Russian
Default : Нет
Forced : Нет
Аудио #3
Идентификатор : 4
Формат : AC-3
Формат/Информация : Audio Coding 3
Расширение режима : CM (complete main)
Параметр Endianness формата : Big
Идентификатор кодека : A_AC3
Продолжительность : 2 ч. 14 м.
Вид битрейта : Постоянный
Битрейт : 384 Кбит/сек
Каналы : 6 каналов
Расположение каналов : Front: L C R, Side: L R, LFE
Частота : 48,0 КГц
Битовая глубина : 16 бит
Метод сжатия : С потерями
Размер потока : 370 Мбайт (3%)
Заголовок : MVO ( Киномания )
Язык : Russian
Default : Нет
Forced : Нет
Аудио #4
Идентификатор : 5
Формат : AC-3
Формат/Информация : Audio Coding 3
Расширение режима : CM (complete main)
Параметр Endianness формата : Big
Идентификатор кодека : A_AC3
Продолжительность : 2 ч. 14 м.
Вид битрейта : Постоянный
Битрейт : 192 Кбит/сек
Каналы : 2 канала
Расположение каналов : Front: L R
Частота : 48,0 КГц
Битовая глубина : 16 бит
Метод сжатия : С потерями
Размер потока : 185 Мбайт (2%)
Заголовок : MVO ( Лазер Видео )
Язык : Russian
Default : Нет
Forced : Нет
Аудио #5
Идентификатор : 6
Формат : AC-3
Формат/Информация : Audio Coding 3
Расширение режима : CM (complete main)
Параметр Endianness формата : Big
Идентификатор кодека : A_AC3
Продолжительность : 2 ч. 14 м.
Вид битрейта : Постоянный
Битрейт : 448 Кбит/сек
Каналы : 6 каналов
Расположение каналов : Front: L C R, Side: L R, LFE
Частота : 48,0 КГц
Битовая глубина : 16 бит
Метод сжатия : С потерями
Размер потока : 432 Мбайт (4%)
Заголовок : DVO ( П.Гланц и И.Королёва )
Язык : Russian
Default : Нет
Forced : Нет
Аудио #6
Идентификатор : 7
Формат : AC-3
Формат/Информация : Audio Coding 3
Расширение режима : CM (complete main)
Параметр Endianness формата : Big
Идентификатор кодека : A_AC3
Продолжительность : 2 ч. 14 м.
Вид битрейта : Постоянный
Битрейт : 448 Кбит/сек
Каналы : 6 каналов
Расположение каналов : Front: L C R, Side: L R, LFE
Частота : 48,0 КГц
Битовая глубина : 16 бит
Метод сжатия : С потерями
Размер потока : 432 Мбайт (4%)
Заголовок : DVO ( Tycoon )
Язык : Russian
Default : Нет
Forced : Нет
Аудио #7
Идентификатор : 8
Формат : AC-3
Формат/Информация : Audio Coding 3
Расширение режима : CM (complete main)
Параметр Endianness формата : Big
Идентификатор кодека : A_AC3
Продолжительность : 2 ч. 14 м.
Вид битрейта : Постоянный
Битрейт : 448 Кбит/сек
Каналы : 6 каналов
Расположение каналов : Front: L C R, Side: L R, LFE
Частота : 48,0 КГц
Битовая глубина : 16 бит
Метод сжатия : С потерями
Размер потока : 432 Мбайт (4%)
Заголовок : AVO ( Гаврилов )
Язык : Russian
Default : Нет
Forced : Нет
Аудио #8
Идентификатор : 9
Формат : AC-3
Формат/Информация : Audio Coding 3
Расширение режима : CM (complete main)
Параметр Endianness формата : Big
Идентификатор кодека : A_AC3
Продолжительность : 2 ч. 14 м.
Вид битрейта : Постоянный
Битрейт : 448 Кбит/сек
Каналы : 6 каналов
Расположение каналов : Front: L C R, Side: L R, LFE
Частота : 48,0 КГц
Битовая глубина : 16 бит
Метод сжатия : С потерями
Размер потока : 432 Мбайт (4%)
Заголовок : AVO ( Живов )
Язык : Russian
Default : Нет
Forced : Нет
Аудио #9
Идентификатор : 10
Формат : AC-3
Формат/Информация : Audio Coding 3
Расширение режима : CM (complete main)
Параметр Endianness формата : Big
Идентификатор кодека : A_AC3
Продолжительность : 2 ч. 14 м.
Вид битрейта : Постоянный
Битрейт : 256 Кбит/сек
Каналы : 2 канала
Расположение каналов : Front: L R
Частота : 48,0 КГц
Битовая глубина : 16 бит
Метод сжатия : С потерями
Размер потока : 247 Мбайт (2%)
Заголовок : AVO ( Володарский )
Язык : Russian
Default : Нет
Forced : Нет
Аудио #10
Идентификатор : 11
Формат : AC-3
Формат/Информация : Audio Coding 3
Расширение режима : CM (complete main)
Параметр Endianness формата : Big
Идентификатор кодека : A_AC3
Продолжительность : 2 ч. 14 м.
Вид битрейта : Постоянный
Битрейт : 448 Кбит/сек
Каналы : 6 каналов
Расположение каналов : Front: L C R, Side: L R, LFE
Частота : 48,0 КГц
Битовая глубина : 16 бит
Метод сжатия : С потерями
Размер потока : 432 Мбайт (4%)
Язык : English
Default : Нет
Forced : Нет
Аудио #11
Идентификатор : 12
Формат : AC-3
Формат/Информация : Audio Coding 3
Расширение режима : CM (complete main)
Параметр Endianness формата : Big
Идентификатор кодека : A_AC3
Продолжительность : 2 ч. 14 м.
Вид битрейта : Постоянный
Битрейт : 224 Кбит/сек
Каналы : 2 канала
Расположение каналов : Front: L R
Частота : 48,0 КГц
Битовая глубина : 16 бит
Метод сжатия : С потерями
Размер потока : 216 Мбайт (2%)
Заголовок : Аудиокомментарий №1 с Джорджем Лукасом, Ирвином Кершнером, Кэрри Фишер, Беном Берттом и Дэннисом Муреном
Язык : English
Default : Нет
Forced : Нет
Аудио #12
Идентификатор : 13
Формат : AC-3
Формат/Информация : Audio Coding 3
Расширение режима : CM (complete main)
Параметр Endianness формата : Big
Идентификатор кодека : A_AC3
Продолжительность : 2 ч. 14 м.
Вид битрейта : Постоянный
Битрейт : 224 Кбит/сек
Каналы : 2 канала
Расположение каналов : Front: L R
Частота : 48,0 КГц
Битовая глубина : 16 бит
Метод сжатия : С потерями
Размер потока : 216 Мбайт (2%)
Заголовок : Аудиокомментарий №2 из архивных интервью с актёрами и создателями фильма
Язык : English
Default : Нет
Forced : Нет
Текст #1
Идентификатор : 14
Формат : UTF-8
Идентификатор кодека : S_TEXT/UTF8
Идентификатор кодека/Информация : UTF-8 Plain Text
Заголовок : Forced ( OPT )
Язык : Russian
Default : Да
Forced : Да
Текст #2
Идентификатор : 15
Формат : UTF-8
Идентификатор кодека : S_TEXT/UTF8
Идентификатор кодека/Информация : UTF-8 Plain Text
Заголовок : Forced
Язык : Russian
Default : Нет
Forced : Нет
Текст #3
Идентификатор : 16
Формат : UTF-8
Идентификатор кодека : S_TEXT/UTF8
Идентификатор кодека/Информация : UTF-8 Plain Text
Язык : Russian
Default : Нет
Forced : Нет
Текст #4
Идентификатор : 17
Формат : UTF-8
Идентификатор кодека : S_TEXT/UTF8
Идентификатор кодека/Информация : UTF-8 Plain Text
Заголовок : Киномания
Язык : Russian
Default : Нет
Forced : Нет
Текст #5
Идентификатор : 18
Формат : UTF-8
Идентификатор кодека : S_TEXT/UTF8
Идентификатор кодека/Информация : UTF-8 Plain Text
Заголовок : Tycoon
Язык : Russian
Default : Нет
Forced : Нет
Текст #6
Идентификатор : 19
Формат : UTF-8
Идентификатор кодека : S_TEXT/UTF8
Идентификатор кодека/Информация : UTF-8 Plain Text
Заголовок : Соmmеntаry№1
Язык : Russian
Default : Нет
Forced : Нет
Текст #7
Идентификатор : 20
Формат : UTF-8
Идентификатор кодека : S_TEXT/UTF8
Идентификатор кодека/Информация : UTF-8 Plain Text
Заголовок : Соmmеntаry№2
Язык : Russian
Default : Нет
Forced : Нет
Текст #8
Идентификатор : 21
Формат : UTF-8
Идентификатор кодека : S_TEXT/UTF8
Идентификатор кодека/Информация : UTF-8 Plain Text
Заголовок : Forced
Язык : English
Default : Нет
Forced : Нет
Текст #9
Идентификатор : 22
Формат : UTF-8
Идентификатор кодека : S_TEXT/UTF8
Идентификатор кодека/Информация : UTF-8 Plain Text
Язык : English
Default : Нет
Forced : Нет
Меню
00:00:00.000 : en:00:00:00.000
00:00:21.187 : en:00:00:21.187
00:01:55.114 : en:00:01:55.114
00:04:58.463 : en:00:04:58.463
00:08:10.906 : en:00:08:10.906
00:12:21.907 : en:00:12:21.907
00:14:22.027 : en:00:14:22.027
00:17:36.012 : en:00:17:36.012
00:22:10.037 : en:00:22:10.037
00:25:08.339 : en:00:25:08.339
00:29:37.357 : en:00:29:37.357
00:31:29.011 : en:00:31:29.011
00:37:44.469 : en:00:37:44.469
00:39:32.244 : en:00:39:32.244
00:45:17.422 : en:00:45:17.422
00:48:23.400 : en:00:48:23.400
00:51:36.009 : en:00:51:36.009
00:53:32.666 : en:00:53:32.666
00:54:25.094 : en:00:54:25.094
00:56:55.244 : en:00:56:55.244
00:58:43.811 : en:00:58:43.811
01:02:41.715 : en:01:02:41.715
01:06:19.266 : en:01:06:19.266
01:07:47.480 : en:01:07:47.480
01:12:01.108 : en:01:12:01.108
01:15:52.672 : en:01:15:52.672
01:18:14.814 : en:01:18:14.814
01:22:30.403 : en:01:22:30.403
01:26:06.869 : en:01:26:06.869
01:26:52.081 : en:01:26:52.081
01:27:50.890 : en:01:27:50.890
01:30:04.524 : en:01:30:04.524
01:33:19.135 : en:01:33:19.135
01:36:41.420 : en:01:36:41.420
01:40:25.185 : en:01:40:25.185
01:42:23.177 : en:01:42:23.177
01:44:27.802 : en:01:44:27.802
01:45:26.944 : en:01:45:26.944
01:48:42.431 : en:01:48:42.431
01:50:40.634 : en:01:50:40.634
01:51:37.106 : en:01:51:37.106
01:54:37.119 : en:01:54:37.119
01:55:07.859 : en:01:55:07.859
01:55:57.492 : en:01:55:57.492
01:57:40.177 : en:01:57:40.177
01:59:34.167 : en:01:59:34.167
02:01:58.853 : en:02:01:58.853
02:04:50.565 : en:02:04:50.565
02:05:27.435 : en:02:05:27.435
02:07:56.042 : en:02:07:56.042
-

Скриншоты


-За русские дороги ОГРОМНОЕ СПАСИБО - -=Osetin=-, wolodik, konstantin49.
[Профиль] [ЛС]
Показать сообщения:    

Текущее время: Сегодня 16:25

Часовой пояс: GMT



Вы не можете начинать темы
Вы не можете отвечать на сообщения
Вы не можете редактировать свои сообщения
Вы не можете удалять свои сообщения
Вы не можете голосовать в опросах
Вы не можете прикреплять файлы к сообщениям
Вы не можете скачивать файлы