Звёздные войны: Эпизод 5 – Империя наносит ответный удар / Star Wars: Episode V - The Empire Strikes Back (1980) BDRip 720p | D, P, P2, A

 
Автор Сообщение

Russian Mafia ®

Пол:

Стаж: 1 год 8 месяцев

Сообщений: 4257



Награды: 10 (Подробнее)

Mega Seeder 2 (Количество: 1) За внесенный вклад в развитие сайта (Количество: 1) Mega Seeder 4 (Количество: 1)
Торрент-статистика

Создавать темы 22-Июл-2016 14:19

[Цитировать]

Звёздные войны: Эпизод 5 – Империя наносит ответный ударStar Wars: Episode V - The Empire Strikes Back«The battle continues...»- Страна: США
Жанр: фантастика, фэнтези, боевик, приключения
Год выпуска: 1980
Продолжительность: 02:07:21
Перевод: 2 x Профессиональный (полное дублирование), 2 x Профессиональный (многоголосый, закадровый), 2 x Профессиональный (двухголосый, закадровый), 3 x Авторский, Оригинальный
Субтитры: русские (Forced + 2 x Full + 2 x комментарии), английские.-Режиссер: Ирвин Кершнер / Irvin Kershner-В ролях: Марк Хэмилл (Luke Skywalker), Харрисон Форд (Han Solo), Кэрри Фишер (Princess Leia), Билли Ди Уильямс (Lando Calrissian), Энтони Дэниелс (C-3PO), Дэвид Праус (Darth Vader), Питер Мейхью (Chewbacca), Кенни Бейкер (R2-D2), Фрэнк Оз (Yoda, озвучка), Алек Гиннесс (Ben (Obi-Wan), Kenobi), Джереми Буллок (Boba Fett), Джон Холлис (Lando's Aide)
Дублёры: Михаил Тихонов (Luke Skywalker), Даниил Эльдаров (Luke Skywalker (2010)), Юрий Деркач (Han Solo), Денис Беспалый (Han Solo (2010)), Мария Овчинникова (Princess Leia), Марианна Шульц (Princess Leia (2010)), Игорь Тарадайкин (Lando Calrissian), Андрей Симанов (Lando Calrissian (2010); Rebel Force Dak (Luke's Gunner)), Никита Прозоровский (C-3PO), Александр Коврижных (C-3PO (2010)), Вячеслав Баранов (Yoda), Борис Смолкин (Yoda (2010))-Описание: Борьба за Галактику обостряется в пятом эпизоде космической саги. Войска Императора начинают массированную атаку на повстанцев и их союзников. Хан Соло и принцесса Лейя укрываются в Заоблачном Городе, в котором их и захватывает Дарт Вейдер, в то время как Люк Скайуокер находится на таинственной планете джунглей Дагоба. Там Мастер - джедай Йода обучает молодого рыцаря навыкам обретения Силы. Люк даже не предполагает, как скоро ему придется воспользоваться знаниями старого Мастера: впереди битва с превосходящими силами Императора и смертельный поединок с Дартом Вейдером.-
MPAA: PG - Рекомендуется присутствие родителей-Семпл-Качество: BDRip
Контейнер: MKV
Видео: AVC, 1280x544 (2.35:1), 5683 kbps, 23,976 fps, 0,340 bpp
Аудио №1: русский / AC3 / 5.1 / 48 kHz / 448 kbps / Дубляж
Аудио №2: русский / AC3 / 5.1 / 48 kHz / 448 kbps / Дубляж ( ОРТ )
Аудио №3: русский / AC3 / 5.1 / 48 kHz / 384 kbps / MVO ( Киномания )
Аудио №4: русский / AC3 / 2.0 / 48 kHz / 192 kbps / MVO ( Лазер Видео )
Аудио №5: русский / AC3 / 5.1 / 48 kHz / 448 kbps / DVO ( Гланц и Королева )
Аудио №6: русский / AC3 / 5.1 / 48 kHz / 448 kbps / DVO ( Tycoon )
Аудио №7: русский / AC3 / 5.1 / 48 kHz / 448 kbps / AVO ( Гаврилов )
Аудио №8: русский / AC3 / 5.1 / 48 kHz / 448 kbps / AVO ( Живов )
Аудио №9: русский / MP3 / 2.0 / 48 kHz / 256 kbps / AVO ( Володарский )
Аудио №10: английский / AC3 / 5.1 / 48 kHz / 448 kbps
Аудио №11: английский / AC3 / 2.0 / 48 kHz / 224 kbps / Аудиокомментарий №1
Аудио №12: английский / AC3 / 2.0 / 48 kHz / 224 kbps / Аудиокомментарий №2
Навигация по главам: есть-

Media Info

Format : Matroska
Format version : Version 2
File size : 8.99 GiB
Duration : 2h 7mn
Overall bit rate : 10.1 Mbps
Movie name : = Звездные войны: Эпизод 5 – Империя наносит ответный удар / Star Wars: Episode V - The Empire (1980) BDRip 720p by SC Kosmos =
Encoded date : UTC 2016-06-10 14:25:12
Writing application : mkvmerge v5.8.0 ('No Sleep / Pillow') built on Sep 2 2012 15:37:04
Writing library : libebml v1.2.3 + libmatroska v1.3.0
Attachment : Yes
Video
ID : 1
Format : AVC
Format/Info : Advanced Video Codec
Format profile : High@L4.1
Format settings, CABAC : Yes
Format settings, ReFrames : 12 frames
Codec ID : V_MPEG4/ISO/AVC
Duration : 2h 7mn
Bit rate : 5 683 Kbps
Width : 1 280 pixels
Height : 544 pixels
Display aspect ratio : 2.35:1
Frame rate : 23.976 fps
Color space : YUV
Chroma subsampling : 4:2:0
Bit depth : 8 bits
Scan type : Progressive
Bits/(Pixel*Frame) : 0.340
Stream size : 4.88 GiB (54%)
Title : Звездные войны: Эпизод 5 – Империя наносит ответный удар / Star Wars: Episode V - The Empire (1980) BDRip 720p by SC Kosmos
Writing library : x264 core 146 r2538 121396c
Encoding settings : cabac=1 / ref=12 / deblock=1:-3:-3 / analyse=0x3:0x113 / me=umh / subme=11 / psy=1 / psy_rd=1.00:0.00 / mixed_ref=1 / me_range=32 / chroma_me=1 / trellis=2 / 8x8dct=1 / cqm=0 / deadzone=21,11 / fast_pskip=0 / chroma_qp_offset=-2 / threads=12 / lookahead_threads=3 / sliced_threads=0 / nr=0 / decimate=0 / interlaced=0 / bluray_compat=0 / constrained_intra=0 / bframes=10 / b_pyramid=2 / b_adapt=2 / b_bias=0 / direct=3 / weightb=1 / open_gop=0 / weightp=2 / keyint=240 / keyint_min=23 / scenecut=40 / intra_refresh=0 / rc_lookahead=50 / rc=2pass / mbtree=0 / bitrate=5683 / ratetol=1.0 / qcomp=0.60 / qpmin=0 / qpmax=69 / qpstep=4 / cplxblur=20.0 / qblur=0.5 / vbv_maxrate=50000 / vbv_bufsize=62500 / nal_hrd=none / filler=0 / ip_ratio=1.40 / pb_ratio=1.30 / aq=1:1.00 / zones=175476,183213,b=0.25
Language : English
Default : Yes
Forced : No
Audio #1
ID : 2
Format : AC-3
Format/Info : Audio Coding 3
Mode extension : CM (complete main)
Codec ID : A_AC3
Duration : 2h 7mn
Bit rate mode : Constant
Bit rate : 448 Kbps
Channel(s) : 6 channels
Channel positions : Front: L C R, Side: L R, LFE
Sampling rate : 48.0 KHz
Bit depth : 16 bits
Compression mode : Lossy
Stream size : 408 MiB (4%)
Title : Дубляж
Language : Russian
Default : Yes
Forced : No
Audio #2
ID : 3
Format : AC-3
Format/Info : Audio Coding 3
Mode extension : CM (complete main)
Codec ID : A_AC3
Duration : 2h 7mn
Bit rate mode : Constant
Bit rate : 448 Kbps
Channel(s) : 6 channels
Channel positions : Front: L C R, Side: L R, LFE
Sampling rate : 48.0 KHz
Bit depth : 16 bits
Compression mode : Lossy
Stream size : 408 MiB (4%)
Title : Дубляж ( ОРТ )
Language : Russian
Default : No
Forced : No
Audio #3
ID : 4
Format : AC-3
Format/Info : Audio Coding 3
Mode extension : CM (complete main)
Codec ID : A_AC3
Duration : 2h 7mn
Bit rate mode : Constant
Bit rate : 384 Kbps
Channel(s) : 6 channels
Channel positions : Front: L C R, Side: L R, LFE
Sampling rate : 48.0 KHz
Bit depth : 16 bits
Compression mode : Lossy
Stream size : 350 MiB (4%)
Title : MVO ( Киномания )
Language : Russian
Default : No
Forced : No
Audio #4
ID : 5
Format : AC-3
Format/Info : Audio Coding 3
Mode extension : CM (complete main)
Codec ID : A_AC3
Duration : 2h 7mn
Bit rate mode : Constant
Bit rate : 192 Kbps
Channel(s) : 2 channels
Channel positions : Front: L R
Sampling rate : 48.0 KHz
Bit depth : 16 bits
Compression mode : Lossy
Stream size : 175 MiB (2%)
Title : MVO ( Лазер Видео )
Language : Russian
Default : No
Forced : No
Audio #5
ID : 6
Format : AC-3
Format/Info : Audio Coding 3
Mode extension : CM (complete main)
Codec ID : A_AC3
Duration : 2h 7mn
Bit rate mode : Constant
Bit rate : 448 Kbps
Channel(s) : 6 channels
Channel positions : Front: L C R, Side: L R, LFE
Sampling rate : 48.0 KHz
Bit depth : 16 bits
Compression mode : Lossy
Stream size : 408 MiB (4%)
Title : DVO ( Гланц и Королева )
Language : Russian
Default : No
Forced : No
Audio #6
ID : 7
Format : AC-3
Format/Info : Audio Coding 3
Mode extension : CM (complete main)
Codec ID : A_AC3
Duration : 2h 7mn
Bit rate mode : Constant
Bit rate : 448 Kbps
Channel(s) : 6 channels
Channel positions : Front: L C R, Side: L R, LFE
Sampling rate : 48.0 KHz
Bit depth : 16 bits
Compression mode : Lossy
Stream size : 408 MiB (4%)
Title : DVO ( Tycoon )
Language : Russian
Default : No
Forced : No
Audio #7
ID : 8
Format : AC-3
Format/Info : Audio Coding 3
Mode extension : CM (complete main)
Codec ID : A_AC3
Duration : 2h 7mn
Bit rate mode : Constant
Bit rate : 448 Kbps
Channel(s) : 6 channels
Channel positions : Front: L C R, Side: L R, LFE
Sampling rate : 48.0 KHz
Bit depth : 16 bits
Compression mode : Lossy
Stream size : 408 MiB (4%)
Title : AVO ( Гаврилов )
Language : Russian
Default : No
Forced : No
Audio #8
ID : 9
Format : AC-3
Format/Info : Audio Coding 3
Mode extension : CM (complete main)
Codec ID : A_AC3
Duration : 2h 7mn
Bit rate mode : Constant
Bit rate : 448 Kbps
Channel(s) : 6 channels
Channel positions : Front: L C R, Side: L R, LFE
Sampling rate : 48.0 KHz
Bit depth : 16 bits
Compression mode : Lossy
Stream size : 408 MiB (4%)
Title : AVO ( Живов )
Language : Russian
Default : No
Forced : No
Audio #9
ID : 10
Format : MPEG Audio
Format version : Version 1
Format profile : Layer 3
Mode : Joint stereo
Codec ID : A_MPEG/L3
Codec ID/Hint : MP3
Duration : 2h 7mn
Bit rate mode : Constant
Bit rate : 256 Kbps
Channel(s) : 2 channels
Sampling rate : 48.0 KHz
Compression mode : Lossy
Stream size : 233 MiB (3%)
Title : AVO ( Володарский )
Language : Russian
Default : No
Forced : No
Audio #10
ID : 11
Format : AC-3
Format/Info : Audio Coding 3
Mode extension : CM (complete main)
Codec ID : A_AC3
Duration : 2h 7mn
Bit rate mode : Constant
Bit rate : 448 Kbps
Channel(s) : 6 channels
Channel positions : Front: L C R, Side: L R, LFE
Sampling rate : 48.0 KHz
Bit depth : 16 bits
Compression mode : Lossy
Stream size : 408 MiB (4%)
Language : English
Default : No
Forced : No
Audio #11
ID : 12
Format : AC-3
Format/Info : Audio Coding 3
Mode extension : CM (complete main)
Codec ID : A_AC3
Duration : 2h 7mn
Bit rate mode : Constant
Bit rate : 224 Kbps
Channel(s) : 2 channels
Channel positions : Front: L R
Sampling rate : 48.0 KHz
Bit depth : 16 bits
Compression mode : Lossy
Stream size : 204 MiB (2%)
Title : Аудиокомментарий №1 с Джорджем Лукасом, Ирвином Кершнером, Кэрри Фишер, Беном Берттом и Дэннисом Муреном
Language : English
Default : No
Forced : No
Audio #12
ID : 13
Format : AC-3
Format/Info : Audio Coding 3
Mode extension : CM (complete main)
Codec ID : A_AC3
Duration : 2h 7mn
Bit rate mode : Constant
Bit rate : 224 Kbps
Channel(s) : 2 channels
Channel positions : Front: L R
Sampling rate : 48.0 KHz
Bit depth : 16 bits
Compression mode : Lossy
Stream size : 204 MiB (2%)
Title : Аудиокомментарий №2 из архивных интервью с актёрами и создателями фильма
Language : English
Default : No
Forced : No
Text #1
ID : 14
Format : UTF-8
Codec ID : S_TEXT/UTF8
Codec ID/Info : UTF-8 Plain Text
Title : Forced
Language : Russian
Default : Yes
Forced : Yes
Text #2
ID : 15
Format : UTF-8
Codec ID : S_TEXT/UTF8
Codec ID/Info : UTF-8 Plain Text
Title : R5
Language : Russian
Default : No
Forced : No
Text #3
ID : 16
Format : UTF-8
Codec ID : S_TEXT/UTF8
Codec ID/Info : UTF-8 Plain Text
Title : Киномания
Language : Russian
Default : No
Forced : No
Text #4
ID : 17
Format : UTF-8
Codec ID : S_TEXT/UTF8
Codec ID/Info : UTF-8 Plain Text
Title : Соmmеntаry№1
Language : Russian
Default : No
Forced : No
Text #5
ID : 18
Format : UTF-8
Codec ID : S_TEXT/UTF8
Codec ID/Info : UTF-8 Plain Text
Title : Соmmеntаry№2
Language : Russian
Default : No
Forced : No
Text #6
ID : 19
Format : UTF-8
Codec ID : S_TEXT/UTF8
Codec ID/Info : UTF-8 Plain Text
Language : English
Default : No
Forced : No
Menu
00:00:00.000 : en:00:00:00.000
00:00:21.103 : en:00:00:21.103
00:01:54.864 : en:00:01:54.864
00:04:15.837 : en:00:04:15.837
00:08:19.247 : en:00:08:19.247
00:10:15.947 : en:00:10:15.947
00:12:57.735 : en:00:12:57.735
00:15:13.537 : en:00:15:13.537
00:16:29.697 : en:00:16:29.697
00:18:19.972 : en:00:18:19.972
00:19:45.392 : en:00:19:45.392
00:21:22.698 : en:00:21:22.698
00:23:57.727 : en:00:23:57.727
00:25:49.422 : en:00:25:49.422
00:29:29.349 : en:00:29:29.349
00:31:29.220 : en:00:31:29.220
00:33:37.682 : en:00:33:37.682
00:35:55.152 : en:00:35:55.152
00:36:51.250 : en:00:36:51.250
00:38:33.561 : en:00:38:33.561
00:40:36.724 : en:00:40:36.724
00:44:20.074 : en:00:44:20.074
00:46:08.389 : en:00:46:08.389
00:50:13.385 : en:00:50:13.385
00:52:16.632 : en:00:52:16.632
00:54:20.255 : en:00:54:20.255
00:57:40.289 : en:00:57:40.289
01:00:57.945 : en:01:00:57.945
01:03:42.777 : en:01:03:42.777
01:05:46.108 : en:01:05:46.108
01:08:12.170 : en:01:08:12.170
01:13:24.233 : en:01:13:24.233
01:16:39.886 : en:01:16:39.886
01:18:24.115 : en:01:18:24.115
01:19:45.863 : en:01:19:45.863
01:22:55.929 : en:01:22:55.929
01:25:38.550 : en:01:25:38.550
01:27:51.265 : en:01:27:51.265
01:30:28.672 : en:01:30:28.672
01:34:39.798 : en:01:34:39.798
01:38:28.902 : en:01:38:28.902
01:40:26.145 : en:01:40:26.145
01:41:46.099 : en:01:41:46.099
01:43:51.432 : en:01:43:51.432
01:47:02.541 : en:01:47:02.541
01:49:21.470 : en:01:49:21.470
01:53:41.689 : en:01:53:41.689
01:56:14.841 : en:01:56:14.841
01:59:46.595 : en:01:59:46.595
02:01:58.226 : en:02:01:58.226
-

Скриншоты


-За русские дороги ОГРОМНОЕ СПАСИБО - -=Osetin=-, wolodik, konstantin49.
[Профиль] [ЛС]
Показать сообщения:    

Текущее время: Сегодня 09:55

Часовой пояс: GMT



Вы не можете начинать темы
Вы не можете отвечать на сообщения
Вы не можете редактировать свои сообщения
Вы не можете удалять свои сообщения
Вы не можете голосовать в опросах
Вы не можете прикреплять файлы к сообщениям
Вы не можете скачивать файлы