Звёздные войны: Эпизод 4 – Новая надежда / Star Wars: Episode IV - A New Hope (1977) BDRip 720p | D, P, P2, A

 
Автор Сообщение

Russian Mafia ®

Пол:

Стаж: 1 год 8 месяцев

Сообщений: 4253



Награды: 10 (Подробнее)

Mega Seeder 3 (Количество: 1) Top Releaser 4 (Количество: 1) Mega Seeder 4 (Количество: 1)
Торрент-статистика

Создавать темы 21-Июл-2016 17:50

[Цитировать]

Звёздные войны: Эпизод 4 – Новая надеждаStar Wars: Episode IV - A New Hope«Coming to your galaxy this summer»- Страна: США
Жанр: фантастика, фэнтези, боевик, приключения
Год выпуска: 1977
Продолжительность: 02:04:44
Перевод: 3 x Профессиональный (полное дублирование), 2 x Профессиональный (многоголосый, закадровый), 2 x Профессиональный (двухголосый, закадровый), 3 x Авторский, Оригинальный
Субтитры: русские (2 x Forced + 3 x Full + 2 x комментарии), английские (Forced + Full).-Режиссер: Джордж Лукас / George Lucas-В ролях: Марк Хэмилл (Luke Skywalker), Харрисон Форд (Han Solo), Кэрри Фишер (Princess Leia Organa), Питер Кушинг (Grand Moff Tarkin), Алек Гиннесс (Ben Obi-Wan Kenobi), Энтони Дэниелс (C-3PO), Кенни Бейкер (R2-D2), Питер Мейхью (Chewbacca), Дэвид Праус (Darth Vader), Фил Браун (Uncle Owen), Шила Фрейзер (Aunt Beru), Джек Пёрвис (Chief Jawa)
Дублёры: Андрей Ташков (Luke Skywalker (1990)), Михаил Тихонов (Luke Skywalker (2007)), Даниил Эльдаров (Luke Skywalker (2010)), Вадим Андреев (Han Solo (1990)), Юрий Деркач (Han Solo (2007)), Денис Беспалый (Han Solo (2010)), Наталья Казначеева (Princess Leia Organa (1990)), Мария Овчинникова (Princess Leia Organa (2007)), Марианна Шульц (Princess Leia Organa (2010)), Владимир Корецкий (Grand Moff Tarkin (1990)), Алексей Золотницкий (Grand Moff Tarkin (2007)), Рудольф Панков (Grand Moff Tarkin (2010))-Описание: Татуин. Планета-пустыня. Уже постаревший рыцарь Джедай Оби Ван Кеноби спасает молодого Люка Скайуокера, когда тот пытается отыскать пропавшего дроида. С этого момента Люк осознает свое истинное назначение: он один из рыцарей Джедай. В то время как гражданская война охватила галактику, а войска повстанцев ведут бои против сил злого Императора, к Люку и Оби Вану присоединяется отчаянный пилот-наемник Хан Соло, и в сопровождении двух дроидов, R2D2 и C-3PO, этот необычный отряд отправляется на поиски предводителя повстанцев - принцессы Леи. Героям предстоит отчаянная схватка с устрашающим Дартом Вейдером - правой рукой Императора и его секретным оружием - «Звездой Смерти».-
MPAA: PG - Рекомендуется присутствие родителей-Семпл-Качество: BDRip
Контейнер: MKV
Видео: AVC, 1280x544 (2.35:1), 6819 kbps, 23,976 fps, 0,408 bpp
Аудио №1: русский / AC3 / 5.1 / 48 kHz / 448 kbps / Дубляж
Аудио №2: русский / AC3 / 5.1 / 48 kHz / 448 kbps / Дубляж ( ОРТ )
Аудио №3: русский / AC3 / 5.1 / 48 kHz / 448 kbps / Дубляж ( Советский дубляж )
Аудио №4: русский / AC3 / 5.1 / 48 kHz / 384 kbps / MVO ( Киномания )
Аудио №5: русский / AC3 / 2.0 / 48 kHz / 192 kbps / MVO ( Лазер Видео )
Аудио №6: русский / AC3 / 5.1 / 48 kHz / 448 kbps / DVO ( Tycoon )
Аудио №7: русский / AC3 / 5.1 / 48 kHz / 448 kbps / DVO ( П.Гланц и И.Королева )
Аудио №8: русский / AC3 / 5.1 / 48 kHz / 448 kbps / AVO ( Гаврилов )
Аудио №9: русский / AC3 / 5.1 / 48 kHz / 448 kbps / AVO ( Живов )
Аудио №10: русский / AC3 / 5.1 / 48 kHz / 448 kbps /AVO ( Михалев ) - со вставками Живова
Аудио №11: английский / AC3 / 5.1 / 48 kHz / 448 kbps
Аудио №12: английский / AC3 / 2.0 / 48 kHz / 224 kbps / Соmmеntаry №1
Аудио №13: английский / AC3 / 2.0 / 48 kHz / 224 kbps / Соmmеntаry №2
Навигация по главам: есть-

Media Info

Формат : Matroska
Версия формата : Version 2
Размер файла : 10,3 Гбайт
Продолжительность : 2 ч. 4 м.
Общий поток : 11,9 Мбит/сек
Название фильма : = Звездные войны: Эпизод 4 - Новая надежда / Star Wars. Episode IV: A New Hope (1977) BDRip 720p by SC Kosmos =
Дата кодирования : UTC 2016-05-07 06:37:18
Программа кодирования : mkvmerge v5.8.0 ('No Sleep / Pillow') built on Sep 2 2012 15:37:04
Библиотека кодирования : libebml v1.2.3 + libmatroska v1.3.0
Attachment : Yes
Видео
Идентификатор : 1
Формат : AVC
Формат/Информация : Advanced Video Codec
Профиль формата : High@L4.1
Параметр CABAC формата : Да
Параметр ReFrames формата : 10 кадров
Идентификатор кодека : V_MPEG4/ISO/AVC
Продолжительность : 2 ч. 4 м.
Битрейт : 6819 Кбит/сек
Ширина : 1280 пикселей
Высота : 544 пикселя
Соотношение сторон : 2,35:1
Режим частоты кадров : Постоянный
Частота кадров : 23,976 кадра/сек
Цветовое пространство : YUV
Субдискретизация насыщенности : 4:2:0
Битовая глубина : 8 бит
Тип развёртки : Прогрессивная
Бит/(Пиксели*Кадры) : 0.408
Размер потока : 5,73 Гбайт (55%)
Заголовок : Звездные войны: Эпизод 4 - Новая надежда / Star Wars. Episode IV: A New Hope (1977) BDRip 720p by SC Kosmos
Библиотека кодирования : x264 core 146 r2538 121396c
Настройки программы : cabac=1 / ref=10 / deblock=1:-3:-3 / analyse=0x3:0x113 / me=umh / subme=11 / psy=1 / psy_rd=1.00:0.00 / mixed_ref=1 / me_range=32 / chroma_me=1 / trellis=2 / 8x8dct=1 / cqm=0 / deadzone=21,11 / fast_pskip=0 / chroma_qp_offset=-2 / threads=12 / lookahead_threads=3 / sliced_threads=0 / nr=0 / decimate=0 / interlaced=0 / bluray_compat=0 / constrained_intra=0 / bframes=10 / b_pyramid=2 / b_adapt=2 / b_bias=0 / direct=3 / weightb=1 / open_gop=0 / weightp=2 / keyint=240 / keyint_min=23 / scenecut=40 / intra_refresh=0 / rc=2pass / mbtree=0 / bitrate=6819 / ratetol=1.0 / qcomp=0.60 / qpmin=0 / qpmax=69 / qpstep=4 / cplxblur=20.0 / qblur=0.5 / ip_ratio=1.40 / pb_ratio=1.30 / aq=1:1.00
Язык : English
Default : Да
Forced : Нет
Аудио #1
Идентификатор : 2
Формат : AC-3
Формат/Информация : Audio Coding 3
Расширение режима : CM (complete main)
Параметр Endianness формата : Big
Идентификатор кодека : A_AC3
Продолжительность : 2 ч. 4 м.
Вид битрейта : Постоянный
Битрейт : 448 Кбит/сек
Каналы : 6 каналов
Расположение каналов : Front: L C R, Side: L R, LFE
Частота : 48,0 КГц
Битовая глубина : 16 бит
Метод сжатия : С потерями
Размер потока : 400 Мбайт (4%)
Заголовок : Дубляж
Язык : Russian
Default : Да
Forced : Нет
Аудио #2
Идентификатор : 3
Формат : AC-3
Формат/Информация : Audio Coding 3
Расширение режима : CM (complete main)
Параметр Endianness формата : Big
Идентификатор кодека : A_AC3
Продолжительность : 2 ч. 4 м.
Вид битрейта : Постоянный
Битрейт : 448 Кбит/сек
Каналы : 6 каналов
Расположение каналов : Front: L C R, Side: L R, LFE
Частота : 48,0 КГц
Битовая глубина : 16 бит
Метод сжатия : С потерями
Размер потока : 400 Мбайт (4%)
Заголовок : Дубляж ( ОРТ )
Язык : Russian
Default : Нет
Forced : Нет
Аудио #3
Идентификатор : 4
Формат : AC-3
Формат/Информация : Audio Coding 3
Расширение режима : CM (complete main)
Параметр Endianness формата : Big
Идентификатор кодека : A_AC3
Продолжительность : 2 ч. 4 м.
Вид битрейта : Постоянный
Битрейт : 448 Кбит/сек
Каналы : 6 каналов
Расположение каналов : Front: L C R, Side: L R, LFE
Частота : 48,0 КГц
Битовая глубина : 16 бит
Метод сжатия : С потерями
Размер потока : 400 Мбайт (4%)
Заголовок : Дубляж ( Советский дубляж )
Язык : Russian
Default : Нет
Forced : Нет
Аудио #4
Идентификатор : 5
Формат : AC-3
Формат/Информация : Audio Coding 3
Расширение режима : CM (complete main)
Параметр Endianness формата : Big
Идентификатор кодека : A_AC3
Продолжительность : 2 ч. 4 м.
Вид битрейта : Постоянный
Битрейт : 384 Кбит/сек
Каналы : 6 каналов
Расположение каналов : Front: L C R, Side: L R, LFE
Частота : 48,0 КГц
Битовая глубина : 16 бит
Метод сжатия : С потерями
Размер потока : 343 Мбайт (3%)
Заголовок : MVO ( Киномания )
Язык : Russian
Default : Нет
Forced : Нет
Аудио #5
Идентификатор : 6
Формат : AC-3
Формат/Информация : Audio Coding 3
Расширение режима : CM (complete main)
Параметр Endianness формата : Big
Идентификатор кодека : A_AC3
Продолжительность : 2 ч. 4 м.
Вид битрейта : Постоянный
Битрейт : 192 Кбит/сек
Каналы : 2 канала
Расположение каналов : Front: L R
Частота : 48,0 КГц
Битовая глубина : 16 бит
Метод сжатия : С потерями
Размер потока : 171 Мбайт (2%)
Заголовок : MVO ( Лазер Видео )
Язык : Russian
Default : Нет
Forced : Нет
Аудио #6
Идентификатор : 7
Формат : AC-3
Формат/Информация : Audio Coding 3
Расширение режима : CM (complete main)
Параметр Endianness формата : Big
Идентификатор кодека : A_AC3
Продолжительность : 2 ч. 4 м.
Вид битрейта : Постоянный
Битрейт : 448 Кбит/сек
Каналы : 6 каналов
Расположение каналов : Front: L C R, Side: L R, LFE
Частота : 48,0 КГц
Битовая глубина : 16 бит
Метод сжатия : С потерями
Размер потока : 400 Мбайт (4%)
Заголовок : DVO ( Tycoon )
Язык : Russian
Default : Нет
Forced : Нет
Аудио #7
Идентификатор : 8
Формат : AC-3
Формат/Информация : Audio Coding 3
Расширение режима : CM (complete main)
Параметр Endianness формата : Big
Идентификатор кодека : A_AC3
Продолжительность : 2 ч. 4 м.
Вид битрейта : Постоянный
Битрейт : 448 Кбит/сек
Каналы : 6 каналов
Расположение каналов : Front: L C R, Side: L R, LFE
Частота : 48,0 КГц
Битовая глубина : 16 бит
Метод сжатия : С потерями
Размер потока : 400 Мбайт (4%)
Заголовок : DVO ( П.Гланц и И.Королева )
Язык : Russian
Default : Нет
Forced : Нет
Аудио #8
Идентификатор : 9
Формат : AC-3
Формат/Информация : Audio Coding 3
Расширение режима : CM (complete main)
Параметр Endianness формата : Big
Идентификатор кодека : A_AC3
Продолжительность : 2 ч. 4 м.
Вид битрейта : Постоянный
Битрейт : 448 Кбит/сек
Каналы : 6 каналов
Расположение каналов : Front: L C R, Side: L R, LFE
Частота : 48,0 КГц
Битовая глубина : 16 бит
Метод сжатия : С потерями
Размер потока : 400 Мбайт (4%)
Заголовок : AVO ( Гаврилов )
Язык : Russian
Default : Нет
Forced : Нет
Аудио #9
Идентификатор : 10
Формат : AC-3
Формат/Информация : Audio Coding 3
Расширение режима : CM (complete main)
Параметр Endianness формата : Big
Идентификатор кодека : A_AC3
Продолжительность : 2 ч. 4 м.
Вид битрейта : Постоянный
Битрейт : 448 Кбит/сек
Каналы : 6 каналов
Расположение каналов : Front: L C R, Side: L R, LFE
Частота : 48,0 КГц
Битовая глубина : 16 бит
Метод сжатия : С потерями
Размер потока : 400 Мбайт (4%)
Заголовок : AVO ( Живов )
Язык : Russian
Default : Нет
Forced : Нет
Аудио #10
Идентификатор : 11
Формат : AC-3
Формат/Информация : Audio Coding 3
Расширение режима : CM (complete main)
Параметр Endianness формата : Big
Идентификатор кодека : A_AC3
Продолжительность : 2 ч. 4 м.
Вид битрейта : Постоянный
Битрейт : 448 Кбит/сек
Каналы : 6 каналов
Расположение каналов : Front: L C R, Side: L R, LFE
Частота : 48,0 КГц
Битовая глубина : 16 бит
Метод сжатия : С потерями
Размер потока : 400 Мбайт (4%)
Заголовок : AVO ( Михалев ) - со вставками Живова
Язык : Russian
Default : Нет
Forced : Нет
Аудио #11
Идентификатор : 12
Формат : AC-3
Формат/Информация : Audio Coding 3
Расширение режима : CM (complete main)
Параметр Endianness формата : Big
Идентификатор кодека : A_AC3
Продолжительность : 2 ч. 4 м.
Вид битрейта : Постоянный
Битрейт : 448 Кбит/сек
Каналы : 6 каналов
Расположение каналов : Front: L C R, Side: L R, LFE
Частота : 48,0 КГц
Битовая глубина : 16 бит
Метод сжатия : С потерями
Размер потока : 400 Мбайт (4%)
Язык : English
Default : Нет
Forced : Нет
Аудио #12
Идентификатор : 13
Формат : AC-3
Формат/Информация : Audio Coding 3
Расширение режима : CM (complete main)
Параметр Endianness формата : Big
Идентификатор кодека : A_AC3
Продолжительность : 2 ч. 4 м.
Вид битрейта : Постоянный
Битрейт : 224 Кбит/сек
Каналы : 2 канала
Расположение каналов : Front: L R
Частота : 48,0 КГц
Битовая глубина : 16 бит
Метод сжатия : С потерями
Размер потока : 200 Мбайт (2%)
Заголовок : Аудиокомментарий №1 с Джорджем Лукасом, Кэрри Фишер, Беном Берттом и Дэннисом Муреном
Язык : English
Default : Нет
Forced : Нет
Аудио #13
Идентификатор : 14
Формат : AC-3
Формат/Информация : Audio Coding 3
Расширение режима : CM (complete main)
Параметр Endianness формата : Big
Идентификатор кодека : A_AC3
Продолжительность : 2 ч. 4 м.
Вид битрейта : Постоянный
Битрейт : 224 Кбит/сек
Каналы : 2 канала
Расположение каналов : Front: L R
Частота : 48,0 КГц
Битовая глубина : 16 бит
Метод сжатия : С потерями
Размер потока : 200 Мбайт (2%)
Заголовок : Аудиокомментарий №2 из архивных интервью с актёрами и создателями фильма
Язык : English
Default : Нет
Forced : Нет
Текст #1
Идентификатор : 15
Формат : UTF-8
Идентификатор кодека : S_TEXT/UTF8
Идентификатор кодека/Информация : UTF-8 Plain Text
Заголовок : Forced
Язык : Russian
Default : Да
Forced : Да
Текст #2
Идентификатор : 16
Формат : UTF-8
Идентификатор кодека : S_TEXT/UTF8
Идентификатор кодека/Информация : UTF-8 Plain Text
Заголовок : Forced 2
Язык : Russian
Default : Нет
Forced : Нет
Текст #3
Идентификатор : 17
Формат : UTF-8
Идентификатор кодека : S_TEXT/UTF8
Идентификатор кодека/Информация : UTF-8 Plain Text
Заголовок : Киномания
Язык : Russian
Default : Нет
Forced : Нет
Текст #4
Идентификатор : 18
Формат : UTF-8
Идентификатор кодека : S_TEXT/UTF8
Идентификатор кодека/Информация : UTF-8 Plain Text
Заголовок : Tycoon
Язык : Russian
Default : Нет
Forced : Нет
Текст #5
Идентификатор : 19
Формат : UTF-8
Идентификатор кодека : S_TEXT/UTF8
Идентификатор кодека/Информация : UTF-8 Plain Text
Заголовок : R5
Язык : Russian
Default : Нет
Forced : Нет
Текст #6
Идентификатор : 20
Формат : UTF-8
Идентификатор кодека : S_TEXT/UTF8
Идентификатор кодека/Информация : UTF-8 Plain Text
Заголовок : Forced
Язык : English
Default : Нет
Forced : Нет
Текст #7
Идентификатор : 21
Формат : UTF-8
Идентификатор кодека : S_TEXT/UTF8
Идентификатор кодека/Информация : UTF-8 Plain Text
Язык : English
Default : Нет
Forced : Нет
Текст #8
Идентификатор : 22
Формат : UTF-8
Идентификатор кодека : S_TEXT/UTF8
Идентификатор кодека/Информация : UTF-8 Plain Text
Заголовок : Аудиокомментарий №1
Язык : Russian
Default : Нет
Forced : Нет
Текст #9
Идентификатор : 23
Формат : UTF-8
Идентификатор кодека : S_TEXT/UTF8
Идентификатор кодека/Информация : UTF-8 Plain Text
Заголовок : Аудиокомментарий №2
Язык : Russian
Default : Нет
Forced : Нет
Меню
00:00:00.000 : en:00:00:00.000
00:00:21.021 : en:00:00:21.021
00:01:53.403 : en:00:01:53.403
00:04:52.791 : en:00:04:52.791
00:07:28.281 : en:00:07:28.281
00:08:54.866 : en:00:08:54.866
00:11:21.389 : en:00:11:21.389
00:15:40.230 : en:00:15:40.230
00:19:40.178 : en:00:19:40.178
00:23:33.202 : en:00:23:33.202
00:25:32.614 : en:00:25:32.614
00:27:45.497 : en:00:27:45.497
00:29:12.709 : en:00:29:12.709
00:32:34.076 : en:00:32:34.076
00:34:53.007 : en:00:34:53.007
00:36:54.210 : en:00:36:54.210
00:39:05.634 : en:00:39:05.634
00:41:42.291 : en:00:41:42.291
00:42:31.547 : en:00:42:31.547
00:44:51.730 : en:00:44:51.730
00:47:52.619 : en:00:47:52.619
00:49:57.994 : en:00:49:57.994
00:51:13.695 : en:00:51:13.695
00:52:40.739 : en:00:52:40.739
00:54:12.331 : en:00:54:12.331
00:56:59.916 : en:00:56:59.916
00:59:14.175 : en:00:59:14.175
01:03:10.827 : en:01:03:10.827
01:06:16.472 : en:01:06:16.472
01:08:21.971 : en:01:08:21.971
01:12:32.389 : en:01:12:32.389
01:14:12.655 : en:01:14:12.655
01:17:13.712 : en:01:17:13.712
01:19:09.327 : en:01:19:09.327
01:21:29.384 : en:01:21:29.384
01:25:00.220 : en:01:25:00.220
01:27:02.091 : en:01:27:02.091
01:29:56.181 : en:01:29:56.181
01:33:48.456 : en:01:33:48.456
01:36:39.877 : en:01:36:39.877
01:38:06.755 : en:01:38:06.755
01:39:37.512 : en:01:39:37.512
01:41:24.994 : en:01:41:24.994
01:42:37.400 : en:01:42:37.400
01:45:02.628 : en:01:45:02.628
01:49:42.783 : en:01:49:42.783
01:55:18.911 : en:01:55:18.911
01:57:47.393 : en:01:57:47.393
01:58:28.518 : en:01:58:28.518
02:00:14.497 : en:02:00:14.497
-

Скриншоты


-За русские дороги ОГРОМНОЕ СПАСИБО - -=Osetin=-, wolodik, konstantin49.
[Профиль] [ЛС]
Показать сообщения:    

Текущее время: Сегодня 06:07

Часовой пояс: GMT



Вы не можете начинать темы
Вы не можете отвечать на сообщения
Вы не можете редактировать свои сообщения
Вы не можете удалять свои сообщения
Вы не можете голосовать в опросах
Вы не можете прикреплять файлы к сообщениям
Вы не можете скачивать файлы